Сегодня идет свободное скачивание без начисления Download

Билли Батгейт / Billy Bathgate ( Роберт Бентон ) (1991, Боевик, драма, криминал ) HDTVRip

Ответить на тему
 
Автор
Сообщение

Витек1 ®

Пол:

Стаж: 3 года 10 месяцев

Сообщений: 459

Откуда: Житомир

Торрент-статистика

Пост 01-Сен-2013 14:07

[Цитировать]

Билли Батгейт / Billy Bathgate
«A seductive look at a notorious gangster's dazzling and decadent empire about to crumble.»
- Русское название: Билли Батгейт
Оригинальное название: Billy Bathgate
Год выпуска: 1991
Производство: США, Touchstone Pictures, Touchwood Pacific Partners 1
Жанр: Боевик, драма, криминал
Перевод: Профессиональный (полное дублирование)
Субтитры: Отсутствуют
Режиссер: Роберт Бентон
Сценарий: Том Стоппард, Эдгар Лоуренс Доктороу
Актеры: Брюс Уиллис, Дастин Хоффман, Николь Кидман, Стив Бушеми, Стэнли Туччи, Ксандер Беркли, Кэтрин Хотон, Фрэнсис Конрой, Билли Джэй, Джон Костелло, Лорен Дин, Стивен Хилл, Тимоти Джером, Кевин Корригэн, Мойра Келли, Тодд Луисо
Описание фильма:
В 1935 году Билли Батгэйт — всего лишь обычный уличный мальчишка, один из многих. Проходит несколько лет, и он становится широко известен… в криминальных кругах… И это не удивительно, ведь Билли входит в банду знаменитого босса мафии Голландца Шульца.
Новая звезда преступного мира успешно продвигается в своей преступной карьере… пока не встречает девушку своей мечты. Она красива и соблазнительна. Но у нее есть один существенный недостаток: она — женщина Голландца.-
Дата мировой премьеры: 1 ноября 1991
Рейтинг MPAA: лицам до 17 лет обязательно присутствие взрослого-Продолжительность: 01:46:33
Качество видео: HDTVRip
Видеокодек: XviD
Битрейт видео: 1749 Кбит/сек
Размер кадра: 720x400
Аудио : Русский, AC3, 2 ch, 192 Кбит/сек

Награды и номинации

  • Золотой глобус, 1992 год
    Номинации (1):
    Лучшая женская роль второго плана (Николь Кидман)

MediaInfo

Общее
Полное имя : E:\Раздачи\Видео\Билли Батгейт (1991) HDTVRip.avi
Формат : AVI
Формат/Информация : Audio Video Interleave
Размер файла : 1,45 Гбайт
Продолжительность : 1 ч. 46 м.
Общий поток : 1950 Кбит/сек
Программа кодирования : VirtualDubMod 1.5.10.2 (build 2540/release)
Библиотека кодирования : VirtualDubMod build 2540/release
Видео
Идентификатор : 0
Формат : MPEG-4 Visual
Профиль формата : Advanced [email protected]
Параметр BVOP формата : 2
Параметр QPel формата : Нет
Параметр GMC формата : Без точки перехода
Параметр матрицы формата : Выборочная
Идентификатор кодека : XVID
Идентификатор кодека/Подсказка : XviD
Продолжительность : 1 ч. 46 м.
Битрейт : 1749 Кбит/сек
Ширина : 720 пикселей
Высота : 400 пикселей
Соотношение сторон : 16:9
Частота кадров : 23,976 кадра/сек
Цветовое пространство : YUV
Субдискретизация насыщенности : 4:2:0
Битовая глубина : 8 бит
Тип развёртки : Прогрессивная
Метод сжатия : С потерями
Бит/(Пиксели*Кадры) : 0.253
Размер потока : 1,30 Гбайт (90%)
Библиотека кодирования : XviD 1.2.1 (UTC 2008-12-04)
Аудио
Идентификатор : 1
Формат : AC-3
Формат/Информация : Audio Coding 3
Расширение режима : CM (complete main)
Параметр Endianness формата : Big
Идентификатор кодека : 2000
Продолжительность : 1 ч. 46 м.
Вид битрейта : Постоянный
Битрейт : 192 Кбит/сек
Каналы : 2 канала
Расположение каналов : Front: L R
Частота : 48,0 КГц
Битовая глубина : 16 бит
Метод сжатия : С потерями
Размер потока : 146 Мбайт (10%)
Выравнивание : Разделение по промежуткам
Продолжительность промежутка : 42 мс. (1,00 видеокадр)
Время предзагрузки промежутка : 500 мс.
Скриншоты:
         
         -

_________________
Скачал сам, дай скачать другому!!!Не забудь сказать -
Вне форума [Профиль] [ЛС]
Показать сообщения:    
Ответить на тему

Текущее время: Сегодня 13:14

Часовой пояс: GMT + 3



Вы не можете начинать темы
Вы не можете отвечать на сообщения
Вы не можете редактировать свои сообщения
Вы не можете удалять свои сообщения
Вы не можете голосовать в опросах
Вы не можете прикреплять файлы к сообщениям
Вы не можете скачивать файлы