Сегодня идет свободное скачивание без начисления Download

Наконец в безопасности! / Safety Last! (1923) BDRip [H.264/720p-LQ]

Ответить на тему
 
Автор
Сообщение

UndegraundMen ®

Стаж: 3 года 9 месяцев

Сообщений: 28329

Торрент-статистика

Пост 02-Сен-2013 11:00

[Цитировать]

Наконец в безопасности! / Safety Last! (1923) BDRip [H.264/720p-LQ]- Год выпуска: 1923
Жанр: Комедия
Описание фильма:
Действие фильма происходит в 1920-е годы. Главный герой — амбициозный молодой человек, жаждущий сделать карьеру. Он уезжает в большой город и устраивается на работу продавцом в универмаге. Но своей возлюбленной, которая ждет, пока он добьется успеха, чтобы переехать жить к нему, наш герой пишет письма, в которых скрывает факт отсутствия продвижения по карьерной лестнице.
Внезапно девушка приезжает в город и приходит в универмаг, где работает ее жених. Одновременно герою наконец-то выпадает шанс проявить себя. Совсем скоро настанет его звездный час!
Режиссер: Фред Ньюмейер, Сэм Тэйлор
Актеры: Гарольд Ллойд, Милдред Дэвис, Билл Стротер, Ной Янг, Весткотт Кларк, Рой Брукс, Мики Дэниелс, Ричард Дэниелс, Рэй Ерленборн, Уильям Гиллеспи
Продолжительность: 01:13:52
Качество видео: BDRip
Перевод: Немой
Язык субтитров: Русские
Вид субтитров: Вшитые

Дата мировой премьеры: 1 апреля 1923
Видеокодек: MPEG-4 AVC
Битрейт видео: ~12,3 Мбит/сек
Размер кадра: 986x720
Аудио #1: Английский (DTS, 2 ch, 768 Кбит/с)
Аудио #2: Английский (DTS, 1 ch, 768 Кбит/с)
Аудио #3: Английский (AC3, 2 ch, 192 Кбит/с)

Дополнительная информация:

Автор релиза 7ime 7raveller
Перевод интертитров: prowler
Корректировка перевода: olss
Синхронизация субтитров: VitoVitelly
Аудиодорожки:
1) Оркестровое музыкальное сопровождение Карла Дэвиса
2) Музыкальное оформление Гейлорда Картера (органчик)
3) Бонусный комментарий на английском

MI:

Общее
Уникальный идентификатор : 220014943884834581984999955078997475436 (0xA585563CB8E57ADAA450B11BB67E006C)
Полное имя : Наконец в безопасности!.mkv
Формат : Matroska
Версия формата : Version 4 / Version 2
Размер файла : 7,39 Гбайт
Продолжительность : 1 ч. 13 м.
Общий поток : 14,3 Мбит/сек
Название фильма : Safety Last! (1923) - Release for HDCLUB by SbR
Дата кодирования : UTC 2013-08-25 15:19:55
Программа кодирования : mkvmerge v6.3.0 ('You can't stop me!') built on Jun 28 2013 20:09:41
Библиотека кодирования : libebml v1.3.0 + libmatroska v1.4.0
Attachment : Yes / Yes
Видео
Идентификатор : 1
Формат : AVC
Формат/Информация : Advanced Video Codec
Профиль формата : [url=mailto:[email protected]][email protected][/url]
Параметр CABAC формата : Да
Параметр ReFrames формата : 11 кадров
Идентификатор кодека : V_MPEG4/ISO/AVC
Продолжительность : 1 ч. 13 м.
Битрейт : 12,3 Мбит/сек
Ширина : 986 пикселей
Высота : 720 пикселей
Соотношение сторон : 4:3
Режим частоты кадров : Постоянный
Частота кадров : 23,976 кадра/сек
Цветовое пространство : YUV
Субдискретизация насыщенности : 4:2:0
Битовая глубина : 8 бит
Тип развёртки : Прогрессивная
Бит/(Пиксели*Кадры) : 0.723
Размер потока : 6,35 Гбайт (86%)
Заголовок : Release for HDCLUB
Библиотека кодирования : x264 core 135 r2345kMod f0c1c53
Настройки программы : cabac=1 / ref=11 / deblock=1:-2:-2 / analyse=0x3:0x113 / me=umh / subme=11 / psy=1 / fade_compensate=0.00 / psy_rd=1.00:0.00 / mixed_ref=1 / me_range=48 / chroma_me=1 / trellis=2 / 8x8dct=1 / cqm=0 / deadzone=21,11 / fast_pskip=1 / chroma_qp_offset=-2 / threads=12 / lookahead_threads=3 / sliced_threads=0 / nr=0 / decimate=1 / interlaced=0 / bluray_compat=0 / constrained_intra=0 / bframes=11 / b_pyramid=2 / b_adapt=2 / b_bias=0 / direct=3 / weightb=1 / open_gop=0 / weightp=2 / keyint=250 / keyint_min=23 / scenecut=40 / intra_refresh=0 / rc_lookahead=60 / rc=crf / mbtree=0 / crf=18.0000 / qcomp=0.60 / qpmin=0 / qpmax=69 / qpstep=4 / vbv_maxrate=62500 / vbv_bufsize=78125 / crf_max=0.0 / nal_hrd=none / ip_ratio=1.40 / pb_ratio=1.30 / aq=1:0.80
Язык : English
Default : Да
Forced : Нет
Основные цвета : BT.709
Характеристики трансфера : BT.709
Коэффициенты матрицы : BT.709
Аудио #1
Идентификатор : 2
Формат : DTS
Формат/Информация : Digital Theater Systems
Режим : 16
Параметр Endianness формата : Big
Идентификатор кодека : A_DTS
Продолжительность : 1 ч. 13 м.
Вид битрейта : Постоянный
Битрейт : 768 Кбит/сек
Каналы : 2 канала
Расположение каналов : Front: L R
Частота : 48,0 КГц
Битовая глубина : 24 бит
Метод сжатия : С потерями
Размер потока : 406 Мбайт (5%)
Заголовок : Orchestral score by Carl Davis
Язык : English
Default : Да
Forced : Нет
Аудио #2
Идентификатор : 3
Формат : DTS
Формат/Информация : Digital Theater Systems
Режим : 16
Параметр Endianness формата : Big
Идентификатор кодека : A_DTS
Продолжительность : 1 ч. 13 м.
Вид битрейта : Постоянный
Битрейт : 768 Кбит/сек
Каналы : 1 канал
Расположение каналов : Front: C
Частота : 48,0 КГц
Битовая глубина : 24 бит
Метод сжатия : С потерями
Размер потока : 406 Мбайт (5%)
Заголовок : Pipe organ score by Gaylord Carter
Язык : English
Default : Нет
Forced : Нет
Аудио #3
Идентификатор : 4
Формат : AC-3
Формат/Информация : Audio Coding 3
Расширение режима : CM (complete main)
Параметр Endianness формата : Big
Идентификатор кодека : A_AC3
Продолжительность : 1 ч. 13 м.
Вид битрейта : Постоянный
Битрейт : 192 Кбит/сек
Каналы : 2 канала
Расположение каналов : Front: L R
Частота : 48,0 КГц
Битовая глубина : 16 бит
Метод сжатия : С потерями
Размер потока : 101 Мбайт (1%)
Заголовок : Сommentary by film critic Leonard Maltin and director and Harold Lloyd archivist Richard Correll
Язык : English
Default : Нет
Forced : Нет
Текст
Идентификатор : 5
Формат : UTF-8
Идентификатор кодека : S_TEXT/UTF8
Идентификатор кодека/Информация : UTF-8 Plain Text
Язык : Russian
Default : Да
Forced : Нет
Меню
00:00:00.000 : en:The boy and the girl
00:07:52.539 : en:Running late
00:16:03.629 : en:Payday
00:19:25.031 : en:Cops and climbing
00:23:29.275 : en:Lunchtime
00:26:57.115 : en:Boy in trouble
00:35:50.949 : en:The general manager
00:41:48.139 : en:Sensational idea
00:47:59.944 : en:Kick the cop
00:53:02.279 : en:The mystery man
00:59:59.629 : en:Higher and higher
01:02:27.077 : en:The big clock
01:08:15.258 : en:On the edge
01:10:47.410 : en:Success at last
Скриншоты:
         
Вне форума [Профиль] [ЛС]
Показать сообщения:    
Ответить на тему

Текущее время: Сегодня 14:54

Часовой пояс: GMT + 3



Вы не можете начинать темы
Вы не можете отвечать на сообщения
Вы не можете редактировать свои сообщения
Вы не можете удалять свои сообщения
Вы не можете голосовать в опросах
Вы не можете прикреплять файлы к сообщениям
Вы не можете скачивать файлы