Сегодня идет свободное скачивание без начисления Download

Капитан / Le Capitan ( Андре Юнебелль ) (1960, Приключения ) [720p] BDRip

Ответить на тему
 
Автор
Сообщение

Витек1 ®

Пол:

Стаж: 3 года 11 месяцев

Сообщений: 459

Откуда: Житомир

Торрент-статистика

Пост 02-Сен-2013 19:12

[Цитировать]

Капитан / Le Capitan- Русское название: Капитан
Оригинальное название: Le Capitan
Выпущено: Франция, Pathé Consortium Cinéma
Год выпуска: 1960
Жанр: Приключения
Описание фильма:
1616 год. Сыну убитого Генриха IV Людовику XIII пятнадцать лет. Он еще мал, чтобы управлять страной. И королева-мать Мария Медичи назначает на пост регента Кончини, который жаждет сам получить трон и титул короля Франции. Молодой дворянин Франсуа, втянутый в эту интригу, искренне предан законному наследнику престола Людовику. Он прилагает все усилия, чтобы встретиться с ним и предупредить его об опасности. В этом ему помогают уличный фокусник и весельчак Коголин…
Режиссер: Андре Юнебелль
Актеры: Жан Марэ, Бурвиль, Эльза Мартинелли, Пьеррет Брюно, Анни Андерсон, Кристиан Фуркад, Лиз Деламар, Арнольдо Фоа, Жаклин Порель, Ги Делорм, Рафаэль Паторни, Робер Порт, Жан Бергер, Жан-Поль Коклен, Пьер Пьераль, Бернар Деран
Продолжительность: 01:44:48
Качество видео: BDRip
Перевод: Дублированный
Язык субтитров: Русские
Вид субтитров: Вшитые

Дата мировой премьеры: 5 октября 1960
Видеокодек: MPEG-4 AVC/H.264
Битрейт видео: ~6900 Кбит/с
Размер кадра: 1280x544
Аудио 1: AC3 Русский 6.0 / 48 kHz / 384 kbps / 16-bit Дублированный
Аудио 2: DTS Английский 6.0 / 48 kHz / 1509 kbps / 16-bit Оригинал
Сэмпл: Ссылка

MI

Общее
Уникальный идентификатор : 239870153600854756518679039593448870175 (0xB4754FA814C7DFE1AAD68F26D6CA111F)
Полное имя : C:\Xvid4PSP\Kapitan.1960.x264.BDRip.720p.mkv
Формат : Matroska
Версия формата : Version 4 / Version 2
Размер файла : 6,44 Гбайт
Продолжительность : 1 ч. 44 м.
Общий поток : 8796 Кбит/сек
Название фильма : = MediaClub = rip by Painter
Дата кодирования : UTC 2013-08-28 10:14:55
Программа кодирования : mkvmerge v6.3.0 ('You can't stop me!') built on Jun 28 2013 20:09:41
Библиотека кодирования : libebml v1.3.0 + libmatroska v1.4.0
Видео
Идентификатор : 1
Формат : AVC
Формат/Информация : Advanced Video Codec
Профиль формата : [url=mailto:[email protected]][email protected][/url]
Параметр CABAC формата : Да
Параметр ReFrames формата : 9 кадров
Идентификатор кодека : V_MPEG4/ISO/AVC
Продолжительность : 1 ч. 44 м.
Битрейт : 6900 Кбит/сек
Ширина : 1280 пикселей
Высота : 544 пикселя
Соотношение сторон : 2,35:1
Режим частоты кадров : Постоянный
Частота кадров : 24,000 кадра/сек
Цветовое пространство : YUV
Субдискретизация насыщенности : 4:2:0
Битовая глубина : 8 бит
Тип развёртки : Прогрессивная
Бит/(Пиксели*Кадры) : 0.413
Размер потока : 4,93 Гбайт (76%)
Библиотека кодирования : x264 core 130 r2273 b3065e6
Настройки программы : cabac=1 / ref=9 / deblock=1:-3:-2 / analyse=0x3:0x133 / me=umh / subme=11 / psy=1 / psy_rd=1.00:0.20 / mixed_ref=1 / me_range=48 / chroma_me=1 / trellis=2 / 8x8dct=1 / cqm=0 / deadzone=21,11 / fast_pskip=0 / chroma_qp_offset=-3 / threads=6 / lookahead_threads=1 / sliced_threads=0 / nr=0 / decimate=0 / interlaced=0 / bluray_compat=0 / constrained_intra=0 / bframes=8 / b_pyramid=2 / b_adapt=2 / b_bias=0 / direct=3 / weightb=1 / open_gop=0 / weightp=2 / keyint=240 / keyint_min=23 / scenecut=40 / intra_refresh=0 / rc=2pass / mbtree=0 / bitrate=6900 / ratetol=1.0 / qcomp=0.60 / qpmin=0 / qpmax=69 / qpstep=4 / cplxblur=20.0 / qblur=0.5 / ip_ratio=1.40 / pb_ratio=1.30 / aq=1:0.10
Язык : French
Default : Да
Forced : Нет
Аудио #1
Идентификатор : 2
Формат : AC-3
Формат/Информация : Audio Coding 3
Расширение режима : CM (complete main)
Параметр Endianness формата : Big
Идентификатор кодека : A_AC3
Продолжительность : 1 ч. 44 м.
Вид битрейта : Постоянный
Битрейт : 384 Кбит/сек
Каналы : 6 каналов
Расположение каналов : Front: L C R, Side: L R, LFE
Частота : 48,0 КГц
Битовая глубина : 16 бит
Метод сжатия : С потерями
Размер потока : 288 Мбайт (4%)
Заголовок : Дубляж
Язык : Russian
Default : Да
Forced : Нет
Аудио #2
Идентификатор : 3
Формат : DTS
Формат/Информация : Digital Theater Systems
Режим : 16
Параметр Endianness формата : Big
Идентификатор кодека : A_DTS
Продолжительность : 1 ч. 44 м.
Вид битрейта : Постоянный
Битрейт : 1509 Кбит/сек
Каналы : 6 каналов
Расположение каналов : Front: L C R, Side: L R, LFE
Частота : 48,0 КГц
Битовая глубина : 16 бит
Метод сжатия : С потерями
Размер потока : 1,10 Гбайт (17%)
Язык : French
Default : Нет
Forced : Нет
Текст
Идентификатор : 4
Формат : UTF-8
Идентификатор кодека : S_TEXT/UTF8
Идентификатор кодека/Информация : UTF-8 Plain Text
Язык : Russian
Default : Нет
Forced : Нет
Меню
00:00:00.000 : :Chapter 01
00:01:36.000 : :Chapter 02
00:02:29.000 : :Chapter 03
00:11:54.916 : :Chapter 04
00:24:52.041 : :Chapter 05
00:36:02.000 : :Chapter 06
00:51:31.500 : :Chapter 07
01:08:20.416 : :Chapter 08
01:15:38.708 : :Chapter 09
01:27:48.791 : :Chapter 10
01:30:23.333 : :Chapter 11
01:44:43.708 : :Chapter 12
Скриншоты:
         

_________________
Скачал сам, дай скачать другому!!!Не забудь сказать -
Вне форума [Профиль] [ЛС]
Похожие темы
Форум Тема Автор Торрент Отв. Посл. сообщение
./templates/default/images/folder_dl.gif Фантастика, фэнтези, ужасы, мистика Юрий Погуляй | Компас черного капитана [2012] [FB2] moralis
1 | 0

0 | 173

2

2016-02-04 21:07
moralis Последнее
./templates/default/images/folder_dl.gif Фильмы 2011-2016 Капитан Саблезуб и сокровища Лама Рама / Kaptein Sabeltann og skatten i Lama Rama (Йон Андреас Андерсен, Лиза Мари Гамлем) [2014, Боевик, драма, комедия, приключения, HDRip] Russian Mafia
1 | 0

0 | 360

8

2016-08-08 16:49
Russian Mafia Последнее
Показать сообщения:    
Ответить на тему

Текущее время: Сегодня 00:20

Часовой пояс: GMT + 3



Вы не можете начинать темы
Вы не можете отвечать на сообщения
Вы не можете редактировать свои сообщения
Вы не можете удалять свои сообщения
Вы не можете голосовать в опросах
Вы не можете прикреплять файлы к сообщениям
Вы не можете скачивать файлы