Сегодня идет свободное скачивание без начисления Download

Радиоволна / Frequency (Грегори Хоблит) [2000 г., фантастика, триллер, драма, криминал, BDRip-AVC]

Ответить на тему
 
Автор
Сообщение

Delia ®

Пол:

Стаж: 7 лет 3 месяца

Сообщений: 1828

Торрент-статистика

Пост 21-Сен-2011 08:09

[Цитировать]

Радиоволна Frequency Год выпуска: 2000
Страна: США
Жанр: фантастика, триллер, драма, криминал
Продолжительность: 01:58:59
Перевод: Профессиональный (полное дублирование)
Режиссер: Грегори Хоблит
Продюссер: Билл Карраро, Тоби Эммерих, Грегори Хоблит
Сценарий: Тоби Эммерих
Бюджет: $31 000 000
Премьера в мире: 28 апреля 2000
В ролях: Деннис Куэйд, Джеймс Кэвизел, Шоун Дойл, Элизабет Митчелл, Андре Брогер, Ноа Эммерик, Мелисса Эррико, Дэниэл Хенсон, Джордан Бриджес, Стефен Джофф
Описание: Полицейский Джон Салливэн случайно связывается по любительской радиостанции со своим покойным отцом, пожарным Фрэнком Салливэном, который умер во время тушения пожара много лет назад...
Качество: BDRip -AVC
Формат: MKV
Видео кодек: H.264
Аудио кодек: AC3
Видео:English, 2079 Кбит/сек, 1024*432 (2,35:1), в 29,970 кадр/сек, AVC ([email protected])
Аудио: Russian, 384 Кбит/сек, 48,0 КГц, 16 бит, 6 канала(ов), AC-3

MI:

Код:
Общее
Уникальный идентификатор         : 170756986675730724919689472964909126565 (0x807699714F2C203AB1AC23210A20D3A5)
Полное имя                       : E:\торрент\Frequency (2000)BDRip-AVC.mkv
Формат                           : Matroska
Размер файла                     : 2,04 Гбайт
Продолжительность                : 1 ч. 58 м.
Общий поток                      : 2459 Кбит/сек
Дата кодирования                 : UTC 2011-09-21 03:28:34
Программа кодирования            : mkvmerge v4.9.1 ('Ich will') built on Jul 11 2011 23:53:15
Библиотека кодирования           : libebml v1.2.1 + libmatroska v1.1.1
Видео
Идентификатор                    : 1
Формат                           : AVC
Формат/Информация                : Advanced Video Codec
Профиль формата                  : [email protected]
Параметр CABAC формата           : Да
Параметр ReFrames формата        : 10 кадры
Параметры GOP формата            : M=1, N=30
Идентификатор кодека             : V_MPEG4/ISO/AVC
Продолжительность                : 1 ч. 58 м.
Битрейт                          : 2079 Кбит/сек
Ширина                           : 1024 пикс.
Высота                           : 432 пикс.
Соотношение сторон               : 2,35:1
Частота кадров                   : 29,970 кадр/сек
Цветовое пространство            : YUV
Подвыборка цветности             : 4:2:0
Битовая глубина                  : 8 бит
Тип развёртки                    : Прогрессивная
Бит/(Пиксели*Кадры)              : 0.157
Размер потока                    : 1,68 Гбайт (82%)
Библиотека кодирования           : x264 core 116 r2074 2641b9e
Настройки программы              : cabac=1 / ref=10 / deblock=1:-3:-3 / analyse=0x3:0x133 / me=umh / subme=9 / psy=1 / psy_rd=1.00:0.20 / mixed_ref=1 / me_range=32 / chroma_me=1 / trellis=2 / 8x8dct=1 / cqm=0 / deadzone=21,11 / fast_pskip=0 / chroma_qp_offset=-3 / threads=6 / sliced_threads=0 / nr=0 / decimate=1 / interlaced=0 / bluray_compat=0 / constrained_intra=0 / bframes=6 / b_pyramid=2 / b_adapt=2 / b_bias=0 / direct=3 / weightb=1 / open_gop=0 / weightp=2 / keyint=250 / keyint_min=23 / scenecut=40 / intra_refresh=0 / rc_lookahead=50 / rc=2pass / mbtree=1 / bitrate=2079 / ratetol=1.0 / qcomp=0.90 / qpmin=10 / qpmax=51 / qpstep=4 / cplxblur=20.0 / qblur=0.5 / ip_ratio=1.40 / aq=1:1.00
Язык                             : English
Аудио
Идентификатор                    : 2
Формат                           : AC-3
Формат/Информация                : Audio Coding 3
Расширение режима                : CM (complete main)
Идентификатор кодека             : A_AC3
Продолжительность                : 1 ч. 58 м.
Вид битрейта                     : Постоянный
Битрейт                          : 384 Кбит/сек
Канал(ы)                         : 6 канала(ов)
Расположение каналов             : Front: L C R, Side: L R, LFE
Частота                          : 48,0 КГц
Битовая глубина                  : 16 бит
Метод сжатия                     : С потерями
Размер потока                    : 327 Мбайт (16%)
Язык                             : Russian

Скриншоты

             

_________________
Человек – это канат, натянутый между животным и сверхчеловеком, – канат над пропастью.
В человеке ценно то, что он мост, а не цель. Фридрих Ницше
Вне форума [Профиль] [ЛС]
Похожие темы
Форум Тема Автор Торрент Отв. Посл. сообщение
./templates/default/images/folder_dl.gif Подшивки журналов и газет Подшивка журналов | Радиоконструктор (2017) [PDF,DJVU] [Обновляемая] Omen
1 | 0

0 | 2478

2

2012-05-11 14:22
Omen Последнее
./templates/default/images/folder_dl.gif Зарубежное кино Радиоволна / Frequency (Грегори Хоблит) [2000, драма, криминал, фантастика, триллер, BDRip-AVC] Владимирский
1 | 0

11 | 2546

3

2014-08-26 04:30
Геннадич Последнее
./templates/default/images/folder_dl.gif Техническая и научно-популярная литература С.Б. Шмаков| Практическая энциклопедия радиолюбителя (2016) [PDF] [email protected]
2 | 0

0 | 30233

8

2017-07-16 22:48
[email protected] Последнее
Показать сообщения:    
Ответить на тему

Текущее время: Сегодня 03:50

Часовой пояс: GMT + 3



Вы не можете начинать темы
Вы не можете отвечать на сообщения
Вы не можете редактировать свои сообщения
Вы не можете удалять свои сообщения
Вы не можете голосовать в опросах
Вы не можете прикреплять файлы к сообщениям
Вы не можете скачивать файлы