Сегодня идет свободное скачивание без начисления Download

Долгое жаркое лето / The Long, Hot Summer (1958) [720p] BDRip

Ответить на тему
 
Автор
Сообщение

UndegraundMen ®

Стаж: 3 года 9 месяцев

Сообщений: 28329

Торрент-статистика

Пост 08-Сен-2013 05:44

[Цитировать]

Долгое жаркое лето / The Long, Hot Summer (1958) [720p] BDRip- Русское название: Долгое жаркое лето
Оригинальное название: The Long, Hot Summer
Выпущено: США, Jerry Wald Productions
Год выпуска: 1958
Жанр: Драма
Описание фильма:
Ньюман стал звездой, сыграв чужака, мастера на все руки, взбудоражившего покой в семье патриарха-южанина, привыкшего к беспрекословному повиновению. Он решил задержаться в этом маленьком южном городке и жениться на дочери Уэллса.
Режиссер: Мартин Ритт
Актеры: Пол Ньюман, Джоэнн Вудворд, Энтони Франчоза, Орсон Уэллс, Ли Ремик, Анджела Лэнсбери, Ричард Андерсон, Джордж Данн, Сара Маршалл, Мэйбл Альбертсон, Джесс Киркпатрик, Дж. Пэт О’Мэлли, Билл Уолкер, Вэл Эйвери, Бирон Фулгер, А. Стэнфорд Джолли, Хелен Уоллес, Роберт Адлер
Продолжительность: 01:56:43
Качество видео: BDRip
Перевод: Многоголосый закадровый (SomeWax)
Язык субтитров: Русские, английские
Вид субтитров: Вшитые

Дата мировой премьеры: 3 апреля 1958
Видеокодек: MPEG-4 AVC/H.264
Битрейт видео: ~7597 Кбит/с
Размер кадра: 1280x544
Аудио 1: AC3 Русский 2.0 / 48 kHz / 192 kbps / 16-bit Многоголосый закадровый (SomeWax)
Аудио 2: AC3 Английский 2.0 / 48 kHz / 448 kbps / 16-bit Оригинал
Сэмпл: Ссылка

MI

Общее
Уникальный идентификатор : 221072763216872892479054532534496775433 (0xA65110C1C68B5D38B0725643ECFDCD09)
Полное имя : C:\Xvid4PSP\The.Long.Hot.Summer.1958.x264.BDRip.720p.mkv
Формат : Matroska
Версия формата : Version 4 / Version 2
Размер файла : 6,72 Гбайт
Продолжительность : 1 ч. 56 м.
Общий поток : 8240 Кбит/сек
Дата кодирования : UTC 2013-09-05 10:42:27
Программа кодирования : mkvmerge v6.3.0 ('You can't stop me!') built on Jun 28 2013 20:09:41
Библиотека кодирования : libebml v1.3.0 + libmatroska v1.4.0
Видео
Идентификатор : 1
Формат : AVC
Формат/Информация : Advanced Video Codec
Профиль формата : [url=mailto:[email protected]][email protected][/url]
Параметр CABAC формата : Да
Параметр ReFrames формата : 8 кадров
Идентификатор кодека : V_MPEG4/ISO/AVC
Продолжительность : 1 ч. 56 м.
Битрейт : 7597 Кбит/сек
Ширина : 1280 пикселей
Высота : 544 пикселя
Соотношение сторон : 2,35:1
Режим частоты кадров : Постоянный
Частота кадров : 23,976 кадра/сек
Цветовое пространство : YUV
Субдискретизация насыщенности : 4:2:0
Битовая глубина : 8 бит
Тип развёртки : Прогрессивная
Бит/(Пиксели*Кадры) : 0.455
Размер потока : 6,06 Гбайт (90%)
Библиотека кодирования : x264 core 124 r2197 69a0443
Настройки программы : cabac=1 / ref=8 / deblock=1:-3:-3 / analyse=0x3:0x133 / me=umh / subme=10 / psy=1 / psy_rd=1.15:0.15 / mixed_ref=1 / me_range=32 / chroma_me=1 / trellis=2 / 8x8dct=1 / cqm=0 / deadzone=21,11 / fast_pskip=1 / chroma_qp_offset=-3 / threads=12 / sliced_threads=0 / nr=0 / decimate=1 / interlaced=0 / bluray_compat=0 / constrained_intra=0 / bframes=5 / b_pyramid=2 / b_adapt=2 / b_bias=0 / direct=3 / weightb=1 / open_gop=0 / weightp=2 / keyint=240 / keyint_min=23 / scenecut=60 / intra_refresh=0 / rc_lookahead=60 / rc=2pass / mbtree=1 / bitrate=7597 / ratetol=1.0 / qcomp=0.70 / qpmin=0 / qpmax=69 / qpstep=4 / cplxblur=20.0 / qblur=0.5 / vbv_maxrate=40000 / vbv_bufsize=40000 / nal_hrd=none / ip_ratio=1.20 / aq=1:1.00
Default : Да
Forced : Нет
Аудио #1
Идентификатор : 2
Формат : AC-3
Формат/Информация : Audio Coding 3
Расширение режима : CM (complete main)
Параметр Endianness формата : Big
Идентификатор кодека : A_AC3
Продолжительность : 1 ч. 56 м.
Вид битрейта : Постоянный
Битрейт : 192 Кбит/сек
Каналы : 2 канала
Расположение каналов : Front: L R
Частота : 48,0 КГц
Битовая глубина : 16 бит
Метод сжатия : С потерями
Размер потока : 160 Мбайт (2%)
Заголовок : SomeWax
Язык : Russian
Default : Да
Forced : Нет
Аудио #2
Идентификатор : 3
Формат : AC-3
Формат/Информация : Audio Coding 3
Расширение режима : CM (complete main)
Параметр Endianness формата : Big
Идентификатор кодека : A_AC3
Продолжительность : 1 ч. 56 м.
Вид битрейта : Постоянный
Битрейт : 448 Кбит/сек
Каналы : 2 канала
Расположение каналов : Front: L R
Частота : 48,0 КГц
Битовая глубина : 16 бит
Метод сжатия : С потерями
Размер потока : 374 Мбайт (5%)
Заголовок : Английский
Язык : English
Default : Нет
Forced : Нет
Текст #1
Идентификатор : 4
Формат : UTF-8
Идентификатор кодека : S_TEXT/UTF8
Идентификатор кодека/Информация : UTF-8 Plain Text
Заголовок : Русские
Язык : Russian
Default : Нет
Forced : Нет
Текст #2
Идентификатор : 5
Формат : UTF-8
Идентификатор кодека : S_TEXT/UTF8
Идентификатор кодека/Информация : UTF-8 Plain Text
Заголовок : Английсие
Язык : English
Default : Нет
Forced : Нет
Меню
00:00:00.000 : :00:00:00.000
00:04:10.250 : :00:04:10.250
00:07:06.051 : :00:07:06.051
00:19:49.522 : :00:19:49.522
00:26:51.735 : :00:26:51.735
00:38:21.007 : :00:38:21.007
00:46:29.412 : :00:46:29.412
00:55:29.785 : :00:55:29.785
01:08:40.241 : :01:08:40.241
01:16:53.359 : :01:16:53.359
01:28:15.790 : :01:28:15.790
01:36:17.855 : :01:36:17.855
01:39:48.566 : :01:39:48.566
01:43:04.428 : :01:43:04.428
01:47:51.882 : :01:47:51.882
01:51:35.480 : :01:51:35.480
Скриншоты:
         
Время раздачи: 24/7
Вне форума [Профиль] [ЛС]
Похожие темы
Форум Тема Автор Торрент Отв. Посл. сообщение
./templates/default/images/folder_dl.gif Медицина и Здоровье Алексей Большаков | Секреты долгожителей. Искусство быть здоровым и жить здорово (2014) [DJVU] Omen
1 | 0

0 | 840

12

2014-04-19 22:02
Omen Последнее
Показать сообщения:    
Ответить на тему

Текущее время: Сегодня 02:55

Часовой пояс: GMT + 3



Вы не можете начинать темы
Вы не можете отвечать на сообщения
Вы не можете редактировать свои сообщения
Вы не можете удалять свои сообщения
Вы не можете голосовать в опросах
Вы не можете прикреплять файлы к сообщениям
Вы не можете скачивать файлы