Сегодня идет свободное скачивание без начисления Download

Огонь и стрела / The Flame and the Arrow (1950) DVDRip [H.264]

Ответить на тему
 
Автор
Сообщение

UndegraundMen ®

Стаж: 3 года 9 месяцев

Сообщений: 28329

Торрент-статистика

Пост 13-Сен-2013 23:00

[Цитировать]

Огонь и стрела / The Flame and the Arrow (1950) DVDRip [H.264] - Год выпуска: 1950
Жанр: Боевик, Мелодрама, Приключения
Производство: США/Norma-F.R. Productions, Warner Bros. Pictures
Описание фильма:
XII век. Вся северная Италия находится год гнетом немецкого императора Фредерико Барбаросе, но горные жители Ломбардии решили сопротивляться гнету иноземного короля и одним из них стал меткий лучник Дардо, которого знают и любят все в округе, и который один в горах воспитывает сына Руди — смелого мальчишку, мать которого пять лет назад ушла от них к жестокому графу Уильриху по прозвищу «Ястреб».
Однажды на дворцовой площади, меткой стрелой Дардо подстрелен любимый сокол графа Ульриха. За этот поступок, разгневанный граф приказал, отобрать сына у мятежного горца и запереть в своем замке, а самого Дардо поймать и повесить. Приспешники графа схватили парнишку, и стали преследовать отца, но к счастью ему удалось скрыться.
Раненый стрелой он получил приют у друзей, где решил составить план похищения сына из плена, отмщения ненавистному графу Ульриху, и освобождения родной Ломбардии от немецкого гнета…
Режиссер: Жак Турнёр
Сценарий: Уолдо Солт
Продюсер: Харольд Хект, Фрэнк Росс, Норман Деминг
Актеры: Берт Ланкастер, Вирджиния Майо, Роберт Дуглас, Элин МакМэон, Фрэнк Олленби, Ник Крэвет, Линн Баггетт, Гордон Геберт, Норман Ллойд, Виктор Килиан
Продолжительность: 01:24:55
Качество видео: DVDRip
Перевод: Двуголосый закадровый (Светла)
Субтитры: Отсутствуют

Дата мировой премьеры: 9 июля 1950
Видеокодек: MPEG-4 AVC/H.264
Битрейт видео: ~2115 Кбит/сек
Размер кадра: 720x544
Аудиокодек: AC3 2.0
Битрейт аудио: 192 kbps

Награды:

Оскар, 1951 год
Номинации (2):
Лучшая работа оператора (цветные фильмы)
Лучший саундтрек для драматических/комедийных картин

MediaInfo:

Общее
Уникальный идентификатор : 249907714078587047080162932063730149456 (0xBC027998CBC48820A8F4A314CEC82850)
Полное имя : H:\Downloads\Огонь и стрела.mkv
Формат : Matroska
Размер файла : 1,37 Гбайт
Продолжительность : 1 ч. 24 м.
Общий поток : 2309 Кбит/сек
Дата кодирования : UTC 2013-09-12 20:30:08
Программа кодирования : mkvmerge v6.0.0 ('Coming Up For Air') built on Jan 20 2013 09:52:00
Библиотека кодирования : libebml v1.3.0 + libmatroska v1.4.0
Видео
Идентификатор : 1
Формат : AVC
Формат/Информация : Advanced Video Codec
Профиль формата : [url=mailto:[email protected]][email protected][/url]
Параметр CABAC формата : Да
Параметр ReFrames формата : 8 кадров
Параметры GOP формата : M=4, N=59
Идентификатор кодека : V_MPEG4/ISO/AVC
Продолжительность : 1 ч. 24 м.
Битрейт : 2115 Кбит/сек
Ширина : 720 пикс.
Высота : 544 пикс.
Соотношение сторон : 4:3
Частота кадров : 25,000 кадр/сек
Цветовое пространство : YUV
Подвыборка цветности : 4:2:0
Битовая глубина : 8 бит
Тип развёртки : Прогрессивная
Бит/(Пиксели*Кадры) : 0.216
Размер потока : 1,23 Гбайт (90%)
Заголовок : The Flame and the Arrow
Библиотека кодирования : x264 core 125 r2208 d9d2288
Настройки программы : cabac=1 / ref=8 / deblock=1:-1:-1 / analyse=0x3:0x133 / me=umh / subme=9 / psy=1 / psy_rd=1.00:0.10 / mixed_ref=1 / me_range=32 / chroma_me=1 / trellis=2 / 8x8dct=1 / cqm=0 / deadzone=21,11 / fast_pskip=0 / chroma_qp_offset=-3 / threads=6 / lookahead_threads=1 / sliced_threads=0 / nr=0 / decimate=1 / interlaced=0 / bluray_compat=0 / constrained_intra=0 / bframes=3 / b_pyramid=2 / b_adapt=2 / b_bias=0 / direct=3 / weightb=1 / open_gop=0 / weightp=2 / keyint=250 / keyint_min=25 / scenecut=40 / intra_refresh=0 / rc_lookahead=60 / rc=2pass / mbtree=1 / bitrate=2115 / ratetol=1.0 / qcomp=0.60 / qpmin=10 / qpmax=51 / qpstep=4 / cplxblur=20.0 / qblur=0.5 / ip_ratio=1.40 / aq=1:1.00
Язык : English
Аудио
Идентификатор : 2
Формат : AC-3
Формат/Информация : Audio Coding 3
Расширение режима : CM (complete main)
Идентификатор кодека : A_AC3
Продолжительность : 1 ч. 24 м.
Вид битрейта : Постоянный
Битрейт : 192 Кбит/сек
Каналы : 1 канал
Расположение каналов : Front: C
Частота : 48,0 КГц
Битовая глубина : 16 бит
Метод сжатия : С потерями
Размер потока : 117 Мбайт (8%)
Заголовок : Двухголосый закадровый -"Светла"
Язык : Russian
Скриншоты:                    Время раздачи: с 13:00 до 01:00 по Москве (выходные круглосуточно), до 10 скачавших
Вне форума [Профиль] [ЛС]
Похожие темы
Форум Тема Автор Торрент Отв. Посл. сообщение
./templates/default/images/folder_dl.gif Иностранные мультфильмы Самолеты: Огонь и вода / Planes: Fire and Rescue (Роберт Ганнавей / Roberts Gannaway) [2014, США, комедия, приключения, HDRip] Dub Omen
1 | 0

0 | 12

1

Вчера 01:00
Omen Последнее
Показать сообщения:    
Ответить на тему

Текущее время: Сегодня 17:32

Часовой пояс: GMT + 3



Вы не можете начинать темы
Вы не можете отвечать на сообщения
Вы не можете редактировать свои сообщения
Вы не можете удалять свои сообщения
Вы не можете голосовать в опросах
Вы не можете прикреплять файлы к сообщениям
Вы не можете скачивать файлы