Сегодня идет свободное скачивание без начисления Download

Ох уж эта наука! / Чудеса науки / Weird Science (Джон Хьюз) (романтическая комедия, фэнтези 1985) BDRip

Ответить на тему
 
Автор
Сообщение

Omen ®

Стаж: 4 года 1 месяц

Сообщений: 194394

Торрент-статистика

Пост 15-Сен-2013 10:55

[Цитировать]

Ох уж эта наука! / Чудеса науки
Weird Science
-«Если не с кем назначить свидание, создай себе девушку сам!»- Год выпуска: 1985
Жанр: романтическая комедия, фэнтези
Описание фильма:
После просмотра фильма "Франкенштейн" два друга-неудачника Гари и Уайатт вдохновляются идеей создания идеальной девушки, которая бы лишила их девственности, став проводницей в мир чувственных наслаждений. Ребята набивают компьютер обложками от мужских журналов и, поместив туда же фотографию Эйнштейна, запускают программу. Спустя несколько минут в комнату входит созданная ими красавица Лиза. С ее появлением жизнь Гари и Уайатта меняется, но не совсем так, как планировали изобретатели...
Режиссер: Джон Хьюз
Актеры: Энтони Майкл Холл, Келли ЛеБрок, Илан Митчелл-Смит, Билл Пэкстон, Сюзанн Снайдер, Джуди Аронсон, Роберт Дауни мл., Роберт Раслер, Вернон Уэллс, Бритт Лич
Продолжительность: 01:33:30
Качество видео: BDRip
Перевод: Профессиональный (многоголосый закадровый)

Дата мировой премьеры: 2 августа 1985
Видеокодек: Xvid
Битрейт видео: ~1775 kbps
Размер кадра: 720x384
Аудиокодек: AC3 5.1
Битрейт аудио: 448 kbps

&

MI

Общее
Полное имя : E:\Фильмы М\Weird.Science.1985.BDRip.avi
Формат : AVI
Формат/Информация : Audio Video Interleave
Размер файла : 1,46 Гбайт
Продолжительность : 1 ч. 33 м.
Общий поток : 2233 Кбит/сек
Название фильма : Weird.Science.1985.BDRip
Режиссёр : rip by maygli
Программа кодирования : VirtualDubModRus 1.5.10.2 (build 2542/release)
Правообладатель : ... (RG Rulya74)
Видео
Идентификатор : 0
Формат : MPEG-4 Visual
Профиль формата : Advanced [email protected]
Параметр BVOP формата : 1
Параметр QPel формата : Нет
Параметр GMC формата : Без точки перехода
Параметр матрицы формата : Выборочная
Режим смешивания : Сжатый битовый поток
Идентификатор кодека : XVID
Идентификатор кодека/Подсказка : XviD
Продолжительность : 1 ч. 33 м.
Битрейт : 1775 Кбит/сек
Ширина : 720 пикселей
Высота : 384 пикселя
Соотношение сторон : 1,85:1
Частота кадров : 23,976 кадра/сек
Цветовое пространство : YUV
Субдискретизация насыщенности : 4:2:0
Битовая глубина : 8 бит
Тип развёртки : Прогрессивная
Метод сжатия : С потерями
Бит/(Пиксели*Кадры) : 0.268
Размер потока : 1,16 Гбайт (80%)
Библиотека кодирования : XviD 65
Аудио
Идентификатор : 1
Формат : AC-3
Формат/Информация : Audio Coding 3
Расширение режима : CM (complete main)
Параметр Endianness формата : Big
Идентификатор кодека : 2000
Продолжительность : 1 ч. 33 м.
Вид битрейта : Постоянный
Битрейт : 448 Кбит/сек
Каналы : 6 каналов
Расположение каналов : Front: L C R, Side: L R, LFE
Частота : 48,0 КГц
Битовая глубина : 16 бит
Метод сжатия : С потерями
Размер потока : 300 Мбайт (20%)
Выравнивание : Разделение по промежуткам
Продолжительность промежутка : 42 мс. (1,00 видеокадр)
Время предзагрузки промежутка : 500 мс.
Заголовок : Профессиональный (многоголосый закадровый)
Скриншоты:
           
Вне форума [Профиль] [ЛС]
Показать сообщения:    
Ответить на тему

Текущее время: Сегодня 17:32

Часовой пояс: GMT + 3



Вы не можете начинать темы
Вы не можете отвечать на сообщения
Вы не можете редактировать свои сообщения
Вы не можете удалять свои сообщения
Вы не можете голосовать в опросах
Вы не можете прикреплять файлы к сообщениям
Вы не можете скачивать файлы