Today is a free download without charge Download

А по утру они проснулись (Сергей Никоненко) (Комедия, Драма 2003) DVDRip [H.264]

Reply to topic
 
Author
Message

Omen ®

Longevity: 6 years 11 months

Posts: 181090

Торрент-статистика

Post 17-Sep-2013 19:28

[Quote]

А по утру они проснулись- Год выпуска: 2003
Жанр: Комедия, Драма
Премьера (РФ): 4 декабря 2003, «Роскинопрокат»
Релиз на DVD: 28 октября 2010, «Флагман-Трейд», ...
Описание фильма:
Восемь героев фильма просыпаются поутру в вытрезвителе: И каждый вспоминает, как именно он туда попал. Фильм состоит из восьми историй наших героев о предшествующем дне. Истории самые разнообразные, ведь все герои разных возрастов, профессий и социальных слоев, от тракториста до профессора. Соответственно и причины, и алкогольные напитки, употребляемые нашими героями, разнообразные…
Режиссер: Сергей Никоненко
Актеры: Александр Абдулов, Сергей Гармаш, Евгений Стычкин, Игорь Бочкин, Сергей Никоненко, Василий Мищенко, Владимир Большов, Ольга Погодина, Екатерина Климова
Продолжительность: 01:30:14
Качество видео: DVDRip

Видеокодек: MPEG-4 AVC/H.264
Битрейт видео: ~1950 Kbps
Размер кадра: 720x432
Аудиокодек: AC3 5.1
Битрейт аудио: 256 Kbps

MediaInfo

General
Уникальный идентификатор : 200170788176285130456534321334487102193 (0x96977DD28D81E237881355862E6432F1)
Полное имя : А поутру они проснулись.mkv
Формат : Matroska
Версия формата : Version 4 / Version 2
Размер файла : 1.40 GiB
Продолжительность : 1h 30mn
Общий поток : 2 217 Kbps
Название фильма : А поутру они проснулись (rip by smithland)
Дата кодирования : UTC 2013-09-16 11:20:49
Программа кодирования : mkvmerge v6.3.0 ('You can't stop me!')
Библиотека кодирования : libebml v1.3.0 + libmatroska v1.4.0
Attachment : Yes
Video
Идентификатор : 1
Формат : AVC
Формат/Информация : Advanced Video Codec
Профиль формата : [url=mailto:[email protected]][email protected][/url]
Параметр CABAC формата : Yes
Параметр ReFrames формата : 10 frames
Идентификатор кодека : V_MPEG4/ISO/AVC
Продолжительность : 1h 30mn
Битрейт : 1 950 Kbps
Ширина : 720 pixels
Высота : 432 pixels
Соотношение сторон : 1.667
Режим частоты кадров : Constant
Частота кадров : 29.970 fps
Цветовое пространство : YUV
Субдискретизация насыщенности : 4:2:0
Битовая глубина : 8 bits
Тип развёртки : Progressive
Бит/(Пиксели*Кадры) : 0.209
Размер потока : 1.21 GiB (86%)
Библиотека кодирования : x264 core 130 r2273 b3065e6
Настройки программы : cabac=1 / ref=10 / deblock=1:-2:-1 / analyse=0x3:0x133 / me=umh / subme=11 / psy=1 / psy_rd=1.10:0.55 / mixed_ref=1 / me_range=26 / chroma_me=1 / trellis=2 / 8x8dct=1 / cqm=0 / deadzone=21,11 / fast_pskip=1 / chroma_qp_offset=-4 / threads=12 / lookahead_threads=1 / sliced_threads=0 / nr=0 / decimate=0 / interlaced=0 / bluray_compat=0 / constrained_intra=0 / bframes=8 / b_pyramid=2 / b_adapt=1 / b_bias=0 / direct=1 / weightb=1 / open_gop=0 / weightp=2 / keyint=300 / keyint_min=30 / scenecut=40 / intra_refresh=0 / rc_lookahead=40 / rc=abr / mbtree=1 / bitrate=1950 / ratetol=1.0 / qcomp=0.60 / qpmin=0 / qpmax=69 / qpstep=4 / ip_ratio=1.40 / aq=1:1.00
Язык : Russian
Default : Yes
Forced : Yes
Color primaries : BT.601 NTSC
Transfer characteristics : BT.709
Matrix coefficients : BT.601
Audio
Идентификатор : 2
Формат : AC-3
Формат/Информация : Audio Coding 3
Расширение режима : CM (complete main)
Параметр Endianness формата : Big
Идентификатор кодека : A_AC3
Продолжительность : 1h 30mn
Вид битрейта : Constant
Битрейт : 256 Kbps
Каналы : 6 channels
Расположение каналов : Front: L C R, Side: L R, LFE
Частота : 48.0 KHz
Битовая глубина : 16 bits
Метод сжатия : Lossy
Размер потока : 165 MiB (12%)
Язык : Russian
Default : Yes
Forced : Yes
Menu
00:00:00.000 : en:Chapter 1
00:08:18.564 : en:Chapter 2
00:15:01.367 : en:Chapter 3
00:22:33.418 : en:Chapter 4
00:34:04.509 : en:Chapter 5
00:41:33.757 : en:Chapter 6
00:49:27.831 : en:Chapter 7
00:57:42.725 : en:Chapter 8
01:04:44.347 : en:Chapter 9
01:14:38.540 : en:Chapter 10
01:22:10.592 : en:Chapter 11
01:27:24.105 : en:Chapter 12
Скриншоты:
       
       
Other forum [Profile] [PM]
Display posts from previous:    
Reply to topic

The time now is: Today 19:15

All times are GMT + 3 Hours



You cannot post new topics in this forum
You cannot reply to topics in this forum
You cannot edit your posts in this forum
You cannot delete your posts in this forum
You cannot vote in polls in this forum
You cannot attach files in this forum
You cannot download files in this forum