Сегодня идет свободное скачивание без начисления Download

Луна 44 / Moon 44 (Роланд Эммерих) (Фантастика, Боевик, Триллер 1990) BDRip [H.264]

Ответить на тему
 
Автор
Сообщение

Omen ®

Стаж: 4 года 1 месяц

Сообщений: 194390

Торрент-статистика

Пост 19-Сен-2013 21:25

[Цитировать]

Луна 44 / Moon 44
Год выпуска: 1990
Жанр: Фантастика, Боевик, Триллер
Производство: Германия (ФРГ)
Описание фильма: Галактическая Горнодобывающая Корпорация получает информацию о том, что их роботы похищаются с Луны-44, и отправляет на станцию детектива Стоуна для расследования. Стоун вынужден действовать под прикрытием в качестве одного из заключенных, которых отправляют на Луну 44, чтобы пилотировать специальные вертолеты.
Но он не знает, что командир станции майор Ли проинструктирован — в случае нападения на Луну-44 пожертвовать людьми ради спасения роботов. И когда детектив выслеживает предателей, ему приходится сражаться на два фронта, пытаясь спасти и людей, и роботов от уничтожения.
Режиссер: Роланд Эммерих
Актеры: Майкл Паре, Лиза Айкхорн, Дин Девлин, Брайан Томпсон, Малкольм МакДауэлл, Стивен Джеффрис, Леон Риппи, Йохен Никель, Мехмет Йилмаз, Джон Марч...
Продолжительность: 01:39:26
Качество видео: BDRip [H.264]
Перевод: Многоголосый закадровый (профессиональный), Дублированный (VHS)
Язык субтитров: Русский
Вид субтитров: Вшитые (отключаемые)

Дата мировой премьеры: 15 февраля 1990
Видеокодек: MPEG-4 AVC/H.264
Битрейт видео: ~1483 kbps
Размер кадра: 1024x432
Аудио #1: 48 kHz, AC3 Dolby Digital, 2 ch, ~224.00 kbps | Русский (Многоголосый)
Аудио #2: 48 kHz, AC3 Dolby Digital, 2 ch, ~192.00 kbps | Русский (Дублированный)
Аудио #3: 48 kHz, AC3 Dolby Digital, 2 ch, ~192.00 kbps | Английский (Оригинал)

&

MediaInfo

Общее
Уникальный идентификатор : 248544318649764081084040840372761313220 (0xBAFBE5032956C0BD8940CBF8C85EBFC4)
Полное имя : D:\Torrent\Moon 44.1990.BDRip-AVC.mkv
Формат : Matroska
Версия формата : Version 4 / Version 2
Размер файла : 1,45 Гбайт
Продолжительность : 1 ч. 39 м.
Общий поток : 2093 Кбит/сек
Название фильма : Луна 44 / Moon 44 (1990) BDRip-AVC rip by Rulya74
Дата кодирования : UTC 2013-09-18 05:22:00
Программа кодирования : mkvmerge v6.2.0 ('Promised Land') built on Apr 28 2013 12:22:01
Библиотека кодирования : libebml v1.3.0 + libmatroska v1.4.0
Видео
Идентификатор : 1
Формат : AVC
Формат/Информация : Advanced Video Codec
Профиль формата : [url=mailto:[email protected]][email protected][/url]
Параметр CABAC формата : Да
Параметр ReFrames формата : 9 кадров
Идентификатор кодека : V_MPEG4/ISO/AVC
Продолжительность : 1 ч. 39 м.
Битрейт : 1483 Кбит/сек
Ширина : 1024 пикселя
Высота : 432 пикселя
Соотношение сторон : 2,40:1
Режим частоты кадров : Постоянный
Частота кадров : 24,000 кадра/сек
Цветовое пространство : YUV
Субдискретизация насыщенности : 4:2:0
Битовая глубина : 8 бит
Тип развёртки : Прогрессивная
Бит/(Пиксели*Кадры) : 0.140
Размер потока : 1,00 Гбайт (69%)
Библиотека кодирования : x264 core 133 r2334 a3ac64b
Настройки программы : cabac=1 / ref=9 / deblock=1:-2:-1 / analyse=0x3:0x113 / me=umh / subme=9 / psy=1 / psy_rd=1.01:0.02 / mixed_ref=1 / me_range=32 / chroma_me=1 / trellis=2 / 8x8dct=1 / cqm=0 / deadzone=21,11 / fast_pskip=0 / chroma_qp_offset=-3 / threads=2 / lookahead_threads=1 / sliced_threads=0 / nr=0 / decimate=1 / interlaced=0 / bluray_compat=0 / constrained_intra=0 / bframes=7 / b_pyramid=2 / b_adapt=2 / b_bias=0 / direct=3 / weightb=1 / open_gop=0 / weightp=2 / keyint=240 / keyint_min=24 / scenecut=40 / intra_refresh=0 / rc_lookahead=40 / rc=2pass / mbtree=1 / bitrate=1483 / ratetol=1.0 / qcomp=0.60 / qpmin=10 / qpmax=69 / qpstep=4 / cplxblur=20.0 / qblur=0.5 / vbv_maxrate=62500 / vbv_bufsize=78125 / nal_hrd=none / ip_ratio=1.40 / aq=2:1.00
Язык : English
Default : Да
Forced : Нет
Аудио #1
Идентификатор : 2
Формат : AC-3
Формат/Информация : Audio Coding 3
Расширение режима : CM (complete main)
Параметр Endianness формата : Big
Идентификатор кодека : A_AC3
Продолжительность : 1 ч. 39 м.
Вид битрейта : Постоянный
Битрейт : 224 Кбит/сек
Каналы : 2 канала
Расположение каналов : Front: L R
Частота : 48,0 КГц
Битовая глубина : 16 бит
Метод сжатия : С потерями
Размер потока : 159 Мбайт (11%)
Заголовок : Профессиональный (многоголосый закадровый)
Язык : Russian
Default : Да
Forced : Нет
Аудио #2
Идентификатор : 3
Формат : AC-3
Формат/Информация : Audio Coding 3
Расширение режима : CM (complete main)
Параметр Endianness формата : Big
Идентификатор кодека : A_AC3
Продолжительность : 1 ч. 39 м.
Вид битрейта : Постоянный
Битрейт : 192 Кбит/сек
Каналы : 2 канала
Расположение каналов : Front: L R
Частота : 48,0 КГц
Битовая глубина : 16 бит
Метод сжатия : С потерями
Размер потока : 136 Мбайт (9%)
Заголовок : Дублированный
Язык : Russian
Default : Нет
Forced : Нет
Аудио #3
Идентификатор : 4
Формат : AC-3
Формат/Информация : Audio Coding 3
Расширение режима : CM (complete main)
Параметр Endianness формата : Big
Идентификатор кодека : A_AC3
Продолжительность : 1 ч. 39 м.
Вид битрейта : Постоянный
Битрейт : 192 Кбит/сек
Каналы : 2 канала
Расположение каналов : Front: L R
Частота : 48,0 КГц
Битовая глубина : 16 бит
Метод сжатия : С потерями
Размер потока : 136 Мбайт (9%)
Заголовок : Оригинал
Язык : English
Default : Нет
Forced : Нет
Текст
Идентификатор : 5
Формат : UTF-8
Идентификатор кодека : S_TEXT/UTF8
Идентификатор кодека/Информация : UTF-8 Plain Text
Язык : Russian
Default : Да
Forced : Нет
Меню
00:00:00.000 : :Chapter 01
00:05:45.292 : :Chapter 02
00:11:09.708 : :Chapter 03
00:14:59.000 : :Chapter 04
00:21:13.250 : :Chapter 05
00:24:47.916 : :Chapter 06
00:30:05.417 : :Chapter 07
00:37:56.417 : :Chapter 08
00:42:54.417 : :Chapter 09
00:46:18.375 : :Chapter 10
00:53:50.958 : :Chapter 11
01:00:58.583 : :Chapter 12
01:07:23.625 : :Chapter 13
01:13:34.125 : :Chapter 14
01:16:26.000 : :Chapter 15
01:23:39.375 : :Chapter 16
01:33:21.292 : :Chapter 17
01:35:46.832 : :Chapter 18
Скриншоты:
       
     
Вне форума [Профиль] [ЛС]
Показать сообщения:    
Ответить на тему

Текущее время: Сегодня 17:23

Часовой пояс: GMT + 3



Вы не можете начинать темы
Вы не можете отвечать на сообщения
Вы не можете редактировать свои сообщения
Вы не можете удалять свои сообщения
Вы не можете голосовать в опросах
Вы не можете прикреплять файлы к сообщениям
Вы не можете скачивать файлы