Сегодня идет свободное скачивание без начисления Download

Маленький большой человек / Little Big Man (1970) BDRip [720p]

Ответить на тему
 
Автор
Сообщение

UndegraundMen ®

Стаж: 3 года 9 месяцев

Сообщений: 28329

Торрент-статистика

Пост 21-Сен-2013 11:03

[Цитировать]

Маленький большой человек / Little Big Man (1970) BDRip [720p]- «Either The Most Neglected Hero In History Or A Liar Of Insane Proportion!»
Год выпуска: 1970
Выпущено: США, Cinema Center Films
Жанр: Драма, Приключения, Вестерн
Описание фильма:
Эпическая история Дикого Запада будет поведана главным героем — стодвадцатилетним стариком в виртуозном исполнении Хоффмана, которому удалось выжить в чудовищной мясорубке, устроенной генералом Кастером. Он расскажет о том, как был усыновлeн индейцами и как стал другом знаменитого стрелка «Дикого Билла» Хикока.
Режиссер: Артур Пенн
Актеры: Дастин Хоффман, Фэй Данауэй, Вождь Дэн Джордж, Мартин Болсам, Ричард Маллиган, Джефф Кори, Эме Экклес, Келли Джин Питерс, Кэрол Андроски, Роберт Литтл Стар, Кэл Беллини, Рубен Морено, Уильям Хикки, Джеймс Андерсон, Джесси Винт, Алан Оппенхаймер, Тэйер Дэвид, Джек Бэннон, Рэй Димас, Алан Ховард, Джек Муллани, Стив Миранда, Лу Кателл, М. Эммет Уолш, Эмили Чо
Продолжительность: 02:19:24
Качество видео: BDRip
Перевод: Многоголосый закадровый (R5)
Язык субтитров: Русский, английский
Вид субтитров: Вшитые отключаемые

Дата мировой премьеры: 14 декабря 1970
Видеокодек: MPEG-4 AVC/H.264
Битрейт видео: ~7673 Кбит/с
Размер кадра: 1280x542
Аудио 1: AC3 Русский 5.1 / 48 kHz / 384 kbps / 16-bit Профессиональный многоголосый (R5)
Аудио 2: DTS Английский 5.1 / 48 kHz / 1509 kbps / 16-bit Оригинал
Сэмпл: Ссылка

MI

Общее
Уникальный идентификатор : 173807916241225292908096006470542626109 (0x82C22FE2400610B1A675EAFBE3050D3D)
Полное имя : C:\Xvid4PSP\Malenky.bolchoy.chelovek.1970.x264.BDRip.720p.mkv
Формат : Matroska
Версия формата : Version 4 / Version 2
Размер файла : 9,51 Гбайт
Продолжительность : 2 ч. 19 м.
Общий поток : 9763 Кбит/сек
Название фильма : Little Big Man (1970) - Release for HDCLUB
Дата кодирования : UTC 2013-09-15 11:45:01
Программа кодирования : mkvmerge v6.3.0 ('You can't stop me!') built on Jun 28 2013 20:09:41
Библиотека кодирования : libebml v1.3.0 + libmatroska v1.4.0
Видео
Идентификатор : 1
Формат : AVC
Формат/Информация : Advanced Video Codec
Профиль формата : [url=mailto:[email protected]][email protected][/url]
Параметр CABAC формата : Да
Параметр ReFrames формата : 11 кадров
Идентификатор кодека : V_MPEG4/ISO/AVC
Продолжительность : 2 ч. 19 м.
Битрейт : 7676 Кбит/сек
Ширина : 1280 пикселей
Высота : 542 пикселя
Соотношение сторон : 2,35:1
Режим частоты кадров : Постоянный
Частота кадров : 23,976 кадра/сек
Цветовое пространство : YUV
Субдискретизация насыщенности : 4:2:0
Битовая глубина : 8 бит
Тип развёртки : Прогрессивная
Бит/(Пиксели*Кадры) : 0.461
Размер потока : 7,47 Гбайт (79%)
Заголовок : Little Big Man (1970) - Release for HDCLUB
Библиотека кодирования : x264 core 119 r2106 07efeb4
Настройки программы : cabac=1 / ref=11 / deblock=1:-3:-3 / analyse=0x3:0x133 / me=umh / subme=10 / psy=1 / psy_rd=1.10:0.10 / mixed_ref=1 / me_range=32 / chroma_me=1 / trellis=2 / 8x8dct=1 / cqm=0 / deadzone=21,11 / fast_pskip=0 / chroma_qp_offset=-3 / threads=12 / sliced_threads=0 / nr=0 / decimate=0 / interlaced=0 / bluray_compat=0 / constrained_intra=0 / bframes=7 / b_pyramid=2 / b_adapt=2 / b_bias=0 / direct=3 / weightb=1 / open_gop=0 / weightp=2 / keyint=250 / keyint_min=23 / scenecut=40 / intra_refresh=0 / rc_lookahead=60 / rc=crf / mbtree=1 / crf=18.0 / qcomp=0.75 / qpmin=0 / qpmax=69 / qpstep=4 / vbv_maxrate=50000 / vbv_bufsize=62500 / crf_max=0.0 / nal_hrd=none / ip_ratio=1.40 / aq=1:0.70
Язык : English
Default : Да
Forced : Нет
Аудио #1
Идентификатор : 2
Формат : AC-3
Формат/Информация : Audio Coding 3
Расширение режима : CM (complete main)
Параметр Endianness формата : Big
Идентификатор кодека : A_AC3
Продолжительность : 2 ч. 19 м.
Вид битрейта : Постоянный
Битрейт : 384 Кбит/сек
Каналы : 6 каналов
Расположение каналов : Front: L C R, Side: L R, LFE
Частота : 48,0 КГц
Битовая глубина : 16 бит
Метод сжатия : С потерями
Размер потока : 383 Мбайт (4%)
Заголовок : AC3 5.1ch 384 kbps, Многоголосый
Язык : Russian
Default : Да
Forced : Нет
Аудио #2
Идентификатор : 3
Формат : DTS
Формат/Информация : Digital Theater Systems
Режим : 16
Параметр Endianness формата : Big
Идентификатор кодека : A_DTS
Продолжительность : 2 ч. 19 м.
Вид битрейта : Постоянный
Битрейт : 1509 Кбит/сек
Каналы : 6 каналов
Расположение каналов : Front: L C R, Side: L R, LFE
Частота : 48,0 КГц
Битовая глубина : 16 бит
Метод сжатия : С потерями
Размер потока : 1,47 Гбайт (15%)
Заголовок : DTS 5.1ch 1510 kbps
Язык : English
Default : Нет
Forced : Нет
Текст #1
Идентификатор : 4
Формат : UTF-8
Идентификатор кодека : S_TEXT/UTF8
Идентификатор кодека/Информация : UTF-8 Plain Text
Заголовок : Russian
Язык : Russian
Default : Да
Forced : Нет
Текст #2
Идентификатор : 5
Формат : UTF-8
Идентификатор кодека : S_TEXT/UTF8
Идентификатор кодека/Информация : UTF-8 Plain Text
Заголовок : English
Язык : English
Default : Нет
Forced : Нет
Меню
00:00:00.000 : en:Turn That Thing On
00:07:34.996 : en:Living Indian
00:15:33.683 : en:No Longer a Boy
00:22:16.210 : en:Welcome to Your New Home
00:29:11.541 : en:My Religion Period
00:34:00.622 : en:A Swindler
00:39:35.415 : en:Natural Born Gunfighter
00:47:08.909 : en:A Respectable Storekeeper
00:55:16.647 : en:Cheyenne Country
01:05:02.982 : en:Muleskinner
01:09:03.139 : en:Death and Life
01:16:52.149 : en:The Indian Nations
01:23:58.450 : en:Turning Pure Indian
01:30:09.195 : en:Invisible
01:37:52.533 : en:From Renegade to Drunk
01:44:43.944 : en:Old Friends
01:47:07.421 : en:A Custer Decision
02:00:31.975 : en:Little Big Horn
02:08:51.349 : en:A World with No Center
02:13:52.691 : en:Sometimes the Magic Works...
Скриншоты:
         
Время раздачи: 24/7
Вне форума [Профиль] [ЛС]
Показать сообщения:    
Ответить на тему

Текущее время: Сегодня 05:09

Часовой пояс: GMT + 3



Вы не можете начинать темы
Вы не можете отвечать на сообщения
Вы не можете редактировать свои сообщения
Вы не можете удалять свои сообщения
Вы не можете голосовать в опросах
Вы не можете прикреплять файлы к сообщениям
Вы не можете скачивать файлы