Сегодня идет свободное скачивание без начисления Download

Забавная мордашка / Funny Face (1957) BDRip [1080p]

Ответить на тему
 
Автор
Сообщение

UndegraundMen ®

Стаж: 3 года 9 месяцев

Сообщений: 28329

Торрент-статистика

Пост 21-Сен-2013 11:35

[Цитировать]

Забавная мордашка / Funny Face (1957) BDRip [1080p]- Год выпуска: 1957
Производство: США
Жанр: Драма, Комедия, Мьюзикл
Перевод: Многоголосый закадровый
Язык: Русский, Английский
Язык субтитров: Английский
Вид субтитров: Вшитые отключаемые
Описание фильма:
История о том, как трогательная продавщица из книжного магазинчика Джоанна стала «лицом» гламурного журнала мод. И помог ей в этом фотограф того же журнала Дик. Джоанна согласилась на эту авантюру только из-за профессора Фластера, проповедующего сомнительные ценности, но, тем не менее, собравшего поклонников из многих стран.
Режиссер: Стенли Донен / Stanley Donen
Актеры: Одри Хепберн, Фред Астер, Кэй Томпсон, Мишель Оклер, Роберт Флеминг, Довима, Сьюзи Паркер, Санни Хартнет, Жан Дел Вэл, Вирджиния Гибсон

Продолжительность: 01:43:19
Качество видео: BDRip [1080p]
Релиз группа: Film Prestige
Видеокодек: MPEG-4 AVC/H.264
Битрейт видео: ~9812 Kbps; 23,976 fps
Размер кадра: 1920x1080 (16:9)
Аудио 1: AC3 5.1, 640 kbps - Русский (Film Prestige)
Аудио 2: AC3 5.1, 640 kbps - Английский
Сэмпл: Ссылка

MediaInfo

Полное имя : D:\Funny Face - 1957.mkv
Формат : Matroska
Версия формата : Version 4 / Version 2
Размер файла : 8,17 Гбайт
Продолжительность : 1 ч. 43 м.
Общий поток : 11,3 Мбит/сек
Название фильма : Funny Face (1957) - Release for HDCLUB by Skazhutin
Дата кодирования : UTC 2013-09-14 08:24:33
Программа кодирования : mkvmerge v6.3.0 ('You can't stop me!') built on Jul 19 2013 16:27:38
Библиотека кодирования : libebml v1.3.0 + libmatroska v1.4.1
Attachment : Yes / Yes
Видео
Идентификатор : 1
Формат : AVC
Формат/Информация : Advanced Video Codec
Профиль формата : [url=mailto:[email protected]][email protected][/url]
Параметр CABAC формата : Да
Параметр ReFrames формата : 4 кадра
Идентификатор кодека : V_MPEG4/ISO/AVC
Продолжительность : 1 ч. 43 м.
Битрейт : 9812 Кбит/сек
Ширина : 1920 пикселей
Высота : 1080 пикселей
Соотношение сторон : 16:9
Режим частоты кадров : Постоянный
Частота кадров : 23,976 кадра/сек
Цветовое пространство : YUV
Субдискретизация насыщенности : 4:2:0
Битовая глубина : 8 бит
Тип развёртки : Прогрессивная
Бит/(Пиксели*Кадры) : 0.197
Размер потока : 7,08 Гбайт (87%)
Заголовок : Release for HDCLUB
Библиотека кодирования : x264 core 124 r2197 69a0443
Настройки программы : cabac=1 / ref=4 / deblock=1:-3:-3 / analyse=0x3:0x113 / me=umh / subme=11 / psy=1 / psy_rd=1.00:0.00 / mixed_ref=1 / me_range=48 / chroma_me=1 / trellis=2 / 8x8dct=1 / cqm=0 / deadzone=21,11 / fast_pskip=1 / chroma_qp_offset=-2 / threads=12 / sliced_threads=0 / nr=0 / decimate=1 / interlaced=0 / bluray_compat=0 / constrained_intra=0 / bframes=7 / b_pyramid=2 / b_adapt=2 / b_bias=0 / direct=1 / weightb=1 / open_gop=0 / weightp=2 / keyint=250 / keyint_min=23 / scenecut=40 / intra_refresh=0 / rc_lookahead=40 / rc=crf / mbtree=0 / crf=17.0 / qcomp=0.60 / qpmin=0 / qpmax=69 / qpstep=4 / vbv_maxrate=50000 / vbv_bufsize=62500 / crf_max=0.0 / nal_hrd=none / ip_ratio=1.40 / pb_ratio=1.30 / aq=1:0.85
Язык : English
Default : Да
Forced : Нет
Коэффициенты матрицы : BT.709
Аудио #1
Идентификатор : 2
Формат : AC-3
Формат/Информация : Audio Coding 3
Расширение режима : CM (complete main)
Параметр Endianness формата : Big
Идентификатор кодека : A_AC3
Продолжительность : 1 ч. 43 м.
Вид битрейта : Постоянный
Битрейт : 640 Кбит/сек
Каналы : 6 каналов
Расположение каналов : Front: L C R, Side: L R, LFE
Частота : 48,0 КГц
Битовая глубина : 16 бит
Метод сжатия : С потерями
Размер потока : 473 Мбайт (6%)
Заголовок : MVO (Film Prestige)
Язык : Russian
Default : Да
Forced : Нет
Аудио #2
Идентификатор : 4
Формат : AC-3
Формат/Информация : Audio Coding 3
Расширение режима : CM (complete main)
Параметр Endianness формата : Big
Идентификатор кодека : A_AC3
Продолжительность : 1 ч. 43 м.
Вид битрейта : Постоянный
Битрейт : 640 Кбит/сек
Каналы : 6 каналов
Расположение каналов : Front: L C R, Side: L R, LFE
Частота : 48,0 КГц
Битовая глубина : 16 бит
Метод сжатия : С потерями
Размер потока : 473 Мбайт (6%)
Язык : English
Default : Нет
Forced : Нет
Текст
Идентификатор : 3
Формат : UTF-8
Идентификатор кодека : S_TEXT/UTF8
Идентификатор кодека/Информация : UTF-8 Plain Text
Язык : English
Default : Нет
Forced : Нет
Меню
00:00:00.000 : en:Main Titles
00:01:53.029 : en:Think Pink
00:06:52.412 : en:A Woman Who Thinks
00:13:58.879 : en:Empathy
00:17:10.195 : en:How Long Has This Been Going On?
00:21:32.916 : en:The Quality Woman
00:26:22.372 : en:Funny Face
00:32:42.126 : en:Bonjour, Paris!
00:39:07.470 : en:Basal Metabolism
00:47:29.179 : en:Let's Kiss And Make Up
00:54:52.247 : en:Take The Picture!
01:02:15.857 : en:He Loves And She Loves
01:10:24.762 : en:On How To Be Lovely
01:14:08.110 : en:Professor Flaustre
01:19:01.069 : en:Lovers Quarrel
01:22:59.432 : en:Clap Yo' Hands
01:30:30.049 : en:Flaustre The Phony
01:34:55.856 : en:The Collection
01:39:20.955 : en:S'Wonderful
Скриншоты:
       
       
Время раздачи: с 13:00 до 21:00 И чаще.
Вне форума [Профиль] [ЛС]
Показать сообщения:    
Ответить на тему

Текущее время: Сегодня 13:30

Часовой пояс: GMT + 3



Вы не можете начинать темы
Вы не можете отвечать на сообщения
Вы не можете редактировать свои сообщения
Вы не можете удалять свои сообщения
Вы не можете голосовать в опросах
Вы не можете прикреплять файлы к сообщениям
Вы не можете скачивать файлы