Сегодня идет свободное скачивание без начисления Download

Сон поваров / Le reve des marmitons (1908) TVRip

Ответить на тему
 
Автор
Сообщение

UndegraundMen ®

Стаж: 3 года 9 месяцев

Сообщений: 28329

Торрент-статистика

Пост 22-Сен-2013 17:00

[Цитировать]

Сон поваров / Le reve des marmitons (1908) TVRip- Название: Сон поваров
Оригинальное название: Le rêve des marmitons
Год выпуска: 1908
Жанр: Фэнтези, короткометражка
Описание фильма:
Изумительный фантасмагорический фильм от мага и кудесника кинематографа Сегундо де Шомона. Специально ко дню рождения Старого Чуланчика.
Режиссер: Сегундо де Шомон
Выпущено: Франция, Pathé Frères
Продолжительность: 00:06:52
Качество видео: TVRip
Перевод: Немой

Видеокодек: Xvid
Битрейт видео: ~2012 kbps
Размер кадра: 640x480
Аудиокодек: MP3, 2 ср
Битрейт аудио: 128 kbps

MediaInfo

Код:
Общее
Полное имя                               : D:\1UP\Son_povarov.avi
Формат                                   : AVI
Формат/Информация                        : Audio Video Interleave
Размер файла                             : 106 Мбайт
Продолжительность                        : 6 м. 52 с.
Общий поток                              : 2150 Кбит/сек
Программа кодирования                    : VirtualDubMod 1.5.4.1 (build 2178/release)
Библиотека кодирования                   : VirtualDub build 30009/release
Видео
Идентификатор                            : 0
Формат                                   : MPEG-4 Visual
Профиль формата                          : Advanced [email protected]
Параметр BVOP формата                    : 1
Параметр QPel формата                    : Нет
Параметр GMC формата                     : Без точки перехода
Параметр матрицы формата                 : Выборочная
Идентификатор кодека                     : XVID
Идентификатор кодека/Подсказка           : XviD
Продолжительность                        : 6 м. 52 с.
Битрейт                                  : 2012 Кбит/сек
Ширина                                   : 640 пикселей
Высота                                   : 480 пикселей
Соотношение сторон                       : 4:3
Частота кадров                           : 25,000 кадров/сек
Цветовое пространство                    : YUV
Субдискретизация насыщенности            : 4:2:0
Битовая глубина                          : 8 бит
Тип развёртки                            : Прогрессивная
Метод сжатия                             : С потерями
Бит/(Пиксели*Кадры)                      : 0.262
Размер потока                            : 98,8 Мбайт (94%)
Библиотека кодирования                   : XviD 64
Аудио
Идентификатор                            : 1
Формат                                   : MPEG Audio
Версия формата                           : Version 1
Профиль формата                          : Layer 3
Идентификатор кодека                     : 55
Идентификатор кодека/Подсказка           : MP3
Продолжительность                        : 6 м. 52 с.
Вид битрейта                             : Постоянный
Битрейт                                  : 128 Кбит/сек
Каналы                                   : 2 канала
Частота                                  : 48,0 КГц
Метод сжатия                             : С потерями
Размер потока                            : 6,29 Мбайт (6%)
Выравнивание                             : Разделение по промежуткам
Продолжительность промежутка             : 40  мс. (1,00 видеокадр)
Время предзагрузки промежутка            : 500  мс.
Скриншоты:          Время раздачи: C 8:00 до 23:00 мск. До первых пяти скачавших.
Вне форума [Профиль] [ЛС]
Показать сообщения:    
Ответить на тему

Текущее время: Сегодня 09:41

Часовой пояс: GMT + 3



Вы не можете начинать темы
Вы не можете отвечать на сообщения
Вы не можете редактировать свои сообщения
Вы не можете удалять свои сообщения
Вы не можете голосовать в опросах
Вы не можете прикреплять файлы к сообщениям
Вы не можете скачивать файлы