Сегодня идет свободное скачивание без начисления Download

Капитан Январь / Captain January (1936) DVDRip [H.264] [Реставрация]

Ответить на тему
 
Автор
Сообщение

UndegraundMen ®

Стаж: 3 года 9 месяцев

Сообщений: 28329

Торрент-статистика

Пост 23-Сен-2013 05:00

[Цитировать]

Капитан Январь / Captain January (1936) DVDRip [H.264]- Год выпуска: 1936
Производство: США, Twentieth Century-Fox Film Corporation
Жанр: Семейный, Мьюзикл, Комедия
Описание фильма:
Капитан Январь - старый моряк, поддерживающий работу маяка на мысе штата Мэн. Несколько лет назад он стал приемным отцом для маленьком девочки-сироты, которую нашел и спас во время шторма. Январь назвал девочку красивым именем Стар. Старый моряк научил ее всем премудростям морской жизни, кроме того, Стар оказалась на редкость талантливым музыкальным ребенком: она рано научилась петь, танцевать и... плеваться, как заправский шкипер.
За этим веселым занятием в кругу моряков и застала маленькую девочку инспектор по педагогике и нравственности, посланная из Салема с проверкой местных школ - Агата Морган. Увидев, в каком "кошмарном обществе" находится юное дитя, чопорная дама требует отдать девочку в интернат, но старый моряк Январь и его друг капитан Назро другого мнения. Они предлагают экзаменовать ребенка, чтобы доказать, что они дают ребенку должное воспитание и имеют право оставить ее жить у себя. Морские волки быстро "научат" девчонку всем требуемым наукам, и, конечно же, Стар получает "отлично". Но на этом неожиданные напасти не закончатся. Правительство решает поставить автоматику на все маяки побережья, а работников уволить. Что же на этот раз предпримут смышленые моряки?
Этот восхитительный фильм для всей семьи поставлен по книге американской детской писательницы Лауры Е. Ричад, автора многочисленных книг. «Капитан Январь» она написала в 1890 году. Этот фильм, поставленный в 1936 году режиссером Дэвидом Батлером с участием юной голливудской звездочки Ширли Темпл, является единственной экранизаций автора книги. Ширли Темпл – «маленькая очаровательная богиня», самая яркая кинозвезда-ребенок музыкального Голливуда и самая популярная в мире актриса детских фильмов.
Режиссер: Дэвид Батлер
Актеры: Ширли Темпл, Гай Кибби, Слим Саммервилл, Бадди Эбсен, Джордж Ирвинг, Сара Хейден, Джейн Дарвелл, Джун Лэнг, Джерри Таккер, Нелла Уолкер

Дата мировой премьеры: 17 апреля 1936
Рейтинг MPAA: Без возрастных ограничений
Продолжительность: 01:14:13
Качество видео: DVDRip
Перевод: Профессиональный многоголосый закадровый
Автор перевода: ООО "Светла"
Видео: AVC, 704x528 (4:3), 23.976 fps, 2 273 Kbps (0.255 bit/pixel)
Аудио #1: AC-3, 48.0 KHz, 2 ch, 192 Kbps, CBR (Русский)
Аудио #2: AC-3, 48.0 KHz, 2 ch, 192 Kbps, CBR (Английский)

МедиаИнфо:

Код:
Видео
Идентификатор                            : 1
Формат                                   : AVC
Формат/Информация                        : Advanced Video Codec
Профиль формата                          : [url=mailto:[email protected]][email protected][/url]
Параметр CABAC формата                   : Да
Параметр ReFrames формата                : 4 кадра
Идентификатор кодека                     : V_MPEG4/ISO/AVC
Продолжительность                        : 1 ч. 17 м.
Битрейт                                  : 2273 Кбит/сек
Ширина                                   : 704 пикселя
Высота                                   : 528 пикселей
Соотношение сторон                       : 4:3
Режим частоты кадров                     : Постоянный
Частота кадров                           : 23,976 кадра/сек
Цветовое пространство                    : YUV
Субдискретизация насыщенности            : 4:2:0
Битовая глубина                          : 8 бит
Тип развёртки                            : Прогрессивная
Бит/(Пиксели*Кадры)                      : 0.255
Размер потока                            : 1,20 Гбайт (84%)
Библиотека кодирования                   : x264 core 125 r2208 d9d2288
Настройки программы                      : cabac=1 / ref=3 / deblock=1:0:0 / analyse=0x1:0x131 / me=umh / subme=7 / psy=1 / psy_rd=1.00:0.00 / mixed_ref=1 / me_range=16 / chroma_me=1 / trellis=2 / 8x8dct=0 / cqm=0 / deadzone=21,11 / fast_pskip=0 / chroma_qp_offset=-2 / threads=3 / lookahead_threads=1 / sliced_threads=0 / nr=0 / decimate=1 / interlaced=0 / bluray_compat=0 / constrained_intra=0 / bframes=3 / b_pyramid=2 / b_adapt=2 / b_bias=0 / direct=3 / weightb=1 / open_gop=0 / weightp=2 / keyint=250 / keyint_min=23 / scenecut=40 / intra_refresh=0 / rc_lookahead=50 / rc=2pass / mbtree=1 / bitrate=2273 / ratetol=1.0 / qcomp=0.60 / qpmin=0 / qpmax=69 / qpstep=4 / cplxblur=20.0 / qblur=0.5 / ip_ratio=1.40 / aq=1:1.00
Default                                  : Да
Forced                                   : Нет
Аудио #1
Идентификатор                            : 2
Формат                                   : AC-3
Формат/Информация                        : Audio Coding 3
Расширение режима                        : CM (complete main)
Параметр Endianness формата              : Big
Идентификатор кодека                     : A_AC3
Продолжительность                        : 1 ч. 17 м.
Вид битрейта                             : Постоянный
Битрейт                                  : 192 Кбит/сек
Каналы                                   : 2 канала
Расположение каналов                     : Front: L R
Частота                                  : 48,0 КГц
Битовая глубина                          : 16 бит
Метод сжатия                             : С потерями
Размер потока                            : 106 Мбайт (7%)
Заголовок                                : MVO - Русский
Язык                                     : Russian
Default                                  : Да
Forced                                   : Нет
Аудио #2
Идентификатор                            : 3
Формат                                   : AC-3
Формат/Информация                        : Audio Coding 3
Расширение режима                        : CM (complete main)
Параметр Endianness формата              : Big
Идентификатор кодека                     : A_AC3
Продолжительность                        : 1 ч. 17 м.
Вид битрейта                             : Постоянный
Битрейт                                  : 192 Кбит/сек
Каналы                                   : 2 канала
Расположение каналов                     : Front: L R
Частота                                  : 48,0 КГц
Битовая глубина                          : 16 бит
Метод сжатия                             : С потерями
Размер потока                            : 106 Мбайт (7%)
Заголовок                                : Original - Английский
Язык                                     : English
Default                                  : Нет
Forced                                   : Нет

Полиграфия:

     
Скриншоты:
         
         
Вне форума [Профиль] [ЛС]
Похожие темы
Форум Тема Автор Торрент Отв. Посл. сообщение
./templates/default/images/folder_dl.gif Фильмы 2011-2016 Капитан Саблезуб и сокровища Лама Рама / Kaptein Sabeltann og skatten i Lama Rama (Йон Андреас Андерсен, Лиза Мари Гамлем) [2014, Боевик, драма, комедия, приключения, HDRip] Russian Mafia
1 | 0

0 | 362

8

2016-08-08 16:49
Russian Mafia Последнее
Показать сообщения:    
Ответить на тему

Текущее время: Сегодня 17:37

Часовой пояс: GMT + 3



Вы не можете начинать темы
Вы не можете отвечать на сообщения
Вы не можете редактировать свои сообщения
Вы не можете удалять свои сообщения
Вы не можете голосовать в опросах
Вы не можете прикреплять файлы к сообщениям
Вы не можете скачивать файлы