Сегодня идет свободное скачивание без начисления Download

Золото для Цезарей / Oro per i Cesari / L\'or des Césars (1963) DVDRip [AVO]

Ответить на тему
 
Автор
Сообщение

UndegraundMen ®

Стаж: 3 года 9 месяцев

Сообщений: 28329

Торрент-статистика

Пост 25-Сен-2013 05:00

[Цитировать]

Золото для Цезарей / Oro per i Cesari / L'or des Césars (1963) DVDRip«The slave seized Rome's greatest treasure... and its wickedest woman!»- Производство: Франция, Италия
Год выпуска: 1963
Жанр: Боевик, Драма, Приключения
Перевод: Авторский одноголосый закадровый
Автор перевода: Антон Алексеев
Язык субтитров: Отсутствуют
Режиссер: абатино Чиуффини , Риккардо Фреда
Продюсер: Джозеф Фрид
Актеры: Джеффри Хантер, Милен Демонжо, Рон Рэнделл, Массимо Джиротти, Джулио Бозетти, Этторе Манни, Жорж Ликан, Фурио Меникони, Тонино Черви, Лаура Нуччи
Описание фильма:
По приказу римского губернатора раб-архитектор снаряжает экспедицию с целью отыскать в Галлии легендарное месторождение золота, столь необходимое Риму. Экспедиция подвергается опасности со стороны кельтских племен. Но фильм не только и не столько о золоте и войнах. есть в нем место любви и ревности, верности и предательству...

Дата мировой премьеры: 9 марта 1963
Продолжительность: 01:25:30
Качество видео: DVDRip
Видеокодек: Xvid
Битрейт видео: ~2041 Kbit/s
Размер кадра: 656 x 384
Аудио #1: MP3, 48,0 КHz, 2.0, 192 Kbit/s (Русский одноголосый)
Аудио #2: MP3, 48,0 КHz, 2.0, 192 Kbit/s (Оригинальный английский)

MediaInfo

Общее
Полное имя : D:\Торренты\ФИЛЬМЫ торента\Золото для Цезарей.1963.DVDRip.avi
Формат : AVI
Формат/Информация : Audio Video Interleave
Размер файла : 1,46 Гбайт
Продолжительность : 1 ч. 25 м.
Общий поток : 2439 Кбит/сек
Видео
Идентификатор : 0
Формат : MPEG-4 Visual
Профиль формата : Advanced [email protected]
Параметр BVOP формата : 1
Параметр QPel формата : Нет
Параметр GMC формата : Без точки перехода
Параметр матрицы формата : Default (MPEG)
Идентификатор кодека : XVID
Идентификатор кодека/Подсказка : XviD
Продолжительность : 1 ч. 25 м.
Битрейт : 2041 Кбит/сек
Ширина : 656 пикс.
Высота : 384 пикс.
Соотношение сторон : 16:9
Частота кадров : 23,976 кадр/сек
Цветовое пространство : YUV
Подвыборка цветности : 4:2:0
Битовая глубина : 8 бит
Тип развёртки : Прогрессивная
Метод сжатия : С потерями
Бит/(Пиксели*Кадры) : 0.338
Размер потока : 1,22 Гбайт (84%)
Библиотека кодирования : XviD 1.2.0.dev47 (UTC 2006-11-01)
Аудио #1
Идентификатор : 1
Формат : MPEG Audio
Версия формата : Version 1
Профиль формата : Layer 3
Режим : Joint stereo
Расширение режима : MS Stereo
Идентификатор кодека : 55
Идентификатор кодека/Подсказка : MP3
Продолжительность : 1 ч. 25 м.
Вид битрейта : Постоянный
Битрейт : 192 Кбит/сек
Каналы : 2 канала
Частота : 48,0 КГц
Метод сжатия : С потерями
Размер потока : 117 Мбайт (8%)
Выравнивание : Соединение по промежуткам
Продолжительность промежутка : 42 мс. (1,00 видеокадр)
Время предзагрузки промежутка : 504 ms
Библиотека кодирования : LAME3.97
Аудио #2
Идентификатор : 2
Формат : MPEG Audio
Версия формата : Version 1
Профиль формата : Layer 3
Режим : Joint stereo
Расширение режима : MS Stereo
Идентификатор кодека : 55
Идентификатор кодека/Подсказка : MP3
Продолжительность : 1 ч. 25 м.
Вид битрейта : Постоянный
Битрейт : 192 Кбит/сек
Каналы : 2 канала
Частота : 48,0 КГц
Метод сжатия : С потерями
Размер потока : 117 Мбайт (8%)
Выравнивание : Соединение по промежуткам
Продолжительность промежутка : 42 мс. (1,00 видеокадр)
Время предзагрузки промежутка : 504 ms
Библиотека кодирования : LAME3.97
Скриншоты:
         
         Время раздачи: 24/7 по возможности
Вне форума [Профиль] [ЛС]
Похожие темы
Форум Тема Автор Торрент Отв. Посл. сообщение
./templates/default/images/folder_dl.gif Строительство, Дизайн и Ремонт Робин Джеймсон - Большая энциклопедия мастера золотые руки [2016г., PDF, RUS] XP1971
1 | 0

0 | 352

5

2016-11-09 22:46
XP1971 Последнее
Показать сообщения:    
Ответить на тему

Текущее время: Сегодня 05:11

Часовой пояс: GMT + 3



Вы не можете начинать темы
Вы не можете отвечать на сообщения
Вы не можете редактировать свои сообщения
Вы не можете удалять свои сообщения
Вы не можете голосовать в опросах
Вы не можете прикреплять файлы к сообщениям
Вы не можете скачивать файлы