Сегодня идет свободное скачивание без начисления Download

Заводила / Kingpin (Бобби Фаррелли, Питер Фаррелли) [1996, комедия, спорт, HDTVRip] [Театральная версия / Theatrical Version] [AVO] (П.Санаев) + [AVO] (Ю.Сербин)

Ответить на тему
 
Автор
Сообщение

maxkiller ®

Пол:

Стаж: 3 года 10 месяцев

Сообщений: 282

Торрент-статистика

Пост 25-Сен-2013 15:37

[Цитировать]

Заводила / Kingpin
Театральная версия / Theatrical Version
-
Год выпуска: 1996
Страна: США
Жанр: комедия, спорт
Продолжительность: 01:53:39
Перевод #1: Авторский (одноголосый закадровый)[П.Санаев]
Перевод #2: Авторский (одноголосый закадровый)[Ю.Сербин]
Cубтитры: нет-Режиссер: Бобби Фаррелли, Питер Фаррелли-В ролях: Вуди Харрельсон, Рэнди Куэйд, Ванесса Энджел, Билл Мюррей, Крис Эллиот, Уильям Джордан, Ричард Тайсон, Лин Шэй, Зен Геснер, Пруденс Райт Холмс.-Описание: Рой Мансон с детства имел талант к боулингу, но в самом начале карьеры за мошенничество лишился правой руки. Уже лысым и немолодым он находит прирожденный талант у Ишмаеля и вцепляется в него, решив осуществить с ним то, чего не смог добиться сам.. И хотя Ишмаель был членом общины мормонов, они вместе пускаются в приключения..- --Качество видео: HDTVRip
Формат видео: AVI
Видео кодек: XviD
Аудио кодек: AC3
Видео: 720x304 (2.37:1), 23.976 fps, build 50 ~1638 kbps avg, 0.31 bit/pixel
Аудио #1: 48 kHz, AC3 Dolby Digital, 2/0 (L,R) ch, ~192 kbps[П.Санаев]
Аудио #2: 48 kHz, AC3 Dolby Digital, 2/0 (L,R) ch, ~192 kbps[Ю.Сербин]--

MI

General
Complete name : E:\INTERNET\Kingpin.1996.HDTVRip.2xAVO(Sanaev, Serbin).km.avi
Format : AVI
Format/Info : Audio Video Interleave
Duration : 1h 53mn
Overall bit rate : 2 037 Kbps
Writing application : VirtualDubMod 1.5.10.3 (build 2550/release)
Writing library : VirtualDubMod build 2550/release
Video
ID : 0
Format : MPEG-4 Visual
Format profile : Advanced [email protected]
Format settings, BVOP : Yes
Format settings, QPel : No
Format settings, GMC : No warppoints
Format settings, Matrix : Custom
Codec ID : XVID
Codec ID/Hint : XviD
Duration : 1h 53mn
Bit rate : 1 639 Kbps
Width : 720 pixels
Height : 304 pixels
Display aspect ratio : 2.35:1
Frame rate : 23.976 fps
Color space : YUV
Chroma subsampling : 4:2:0
Bit depth : 8 bits
Scan type : Progressive
Bits/(Pixel*Frame) : 0.312
Stream size : 1.30 GiB (80%)
Writing library : XviD 1.2.1 (UTC 2008-12-04)
Audio #1
ID : 1
Format : AC-3
Format/Info : Audio Coding 3
Mode extension : CM (complete main)
Codec ID : 2000
Duration : 1h 53mn
Bit rate mode : Constant
Bit rate : 192 Kbps
Channel(s) : 2 channels
Channel positions : Front: L R
Sampling rate : 48.0 KHz
Bit depth : 16 bits
Stream size : 156 MiB (9%)
Alignment : Split accross interleaves
Interleave, duration : 42 ms (1.00 video frame)
Interleave, preload duration : 500 ms
Audio #2
ID : 2
Format : AC-3
Format/Info : Audio Coding 3
Mode extension : CM (complete main)
Codec ID : 2000
Duration : 1h 53mn
Bit rate mode : Constant
Bit rate : 192 Kbps
Channel(s) : 2 channels
Channel positions : Front: L R
Sampling rate : 48.0 KHz
Bit depth : 16 bits
Stream size : 156 MiB (9%)
Alignment : Split accross interleaves
Interleave, duration : 42 ms (1.00 video frame)
Interleave, preload duration : 500 ms

Скриншоты

     
Вне форума [Профиль] [ЛС]
Показать сообщения:    
Ответить на тему

Текущее время: Сегодня 17:37

Часовой пояс: GMT + 3



Вы не можете начинать темы
Вы не можете отвечать на сообщения
Вы не можете редактировать свои сообщения
Вы не можете удалять свои сообщения
Вы не можете голосовать в опросах
Вы не можете прикреплять файлы к сообщениям
Вы не можете скачивать файлы