Сегодня идет свободное скачивание без начисления Download

Солдат в синем мундире / Soldier Blue (1970) [720p] BDRip

Ответить на тему
 
Автор
Сообщение

UndegraundMen ®

Стаж: 3 года 9 месяцев

Сообщений: 28329

Торрент-статистика

Пост 26-Сен-2013 11:07

[Цитировать]

Солдат в синем мундире / Soldier Blue (1970) [720p] BDRip- Русское название: Солдат в синем мундире
Оригинальное название: Soldier Blue
Выпущено: США, AVCO Embassy Pictures, Katzka-Loeb
Год выпуска: 1970
Жанр: Драма, Мелодрама, Приключения
Описание фильма:
Отряд кавалерии, перевозивший золото для армии, подвергся нападению индейцев и был уничтожен. Спаслись только женщина, которую солдаты взяли попутно? и один солдат в синем мундире. Вместе они добираются до своих, по пути их ожидают неожиданные приключения, в результате чего между ними завязывается роман. Но когда они наконец-то добрались до своих, то становятся свидетелями зверского уничтожения индейской деревни правительственными войсками. Фильм снят на основе реальных событий...
Режиссер: Ральф Нельсон
Актеры: Кэндис Берген, Питер Штраусс, Дональд Плезенс, Джон Андерсон, Хорхе Риверо, Дэна Элкар, Боб Каррауэй, Мартин Уэст, Джеймс Хэмптон, Морт Миллз, Хорхе Руссек, Аурора Клавель, Ральф Нельсон, Марко Антонио Арсате, Рон Флетчер, Конрад Хул, Лэнс Хул, Барбара Тернер
Продолжительность: 01:55:13
Качество видео: BDRip
Перевод: Двуголосый закадровый
Язык субтитров: Русские
Вид субтитров: Вшитые

Дата мировой премьеры: 12 августа 1970
Видеокодек: MPEG-4 AVC/H.264
Битрейт видео: ~4844 Кбит/с
Размер кадра: 1280х544
Ауди 1: AC3 Русский 2.0 / 48 kHz / 192 kbps / 16-bit Двуголосый закадровый
Ауди 2: AC3 Английский 2.0 / 48 kHz / 192 kbps / 16-bit Оригинал
Сэмпл: Ссылка

MI

Общее
Уникальный идентификатор : 176817431772803293275514571084202683044 (0x8505CC7498289B33ADB93E78BE22AAA4)
Полное имя : C:\Xvid4PSP\Soldat.v.sinem.mundire.1970.x264.BDRip.720p.mkv
Формат : Matroska
Версия формата : Version 4 / Version 2
Размер файла : 4,21 Гбайт
Продолжительность : 1 ч. 55 м.
Общий поток : 5231 Кбит/сек
Название фильма : Soldier Blue (1970)
Дата кодирования : UTC 2013-09-24 09:32:08
Программа кодирования : mkvmerge v6.4.1 ('Omega Point') built on Sep 16 2013 22:05:10
Библиотека кодирования : libebml v1.3.0 + libmatroska v1.4.1
Видео
Идентификатор : 1
Формат : AVC
Формат/Информация : Advanced Video Codec
Профиль формата : [url=mailto:[email protected]][email protected][/url]
Параметр CABAC формата : Да
Параметр ReFrames формата : 8 кадров
Идентификатор кодека : V_MPEG4/ISO/AVC
Продолжительность : 1 ч. 55 м.
Битрейт : 4844 Кбит/сек
Ширина : 1280 пикселей
Высота : 544 пикселя
Соотношение сторон : 2,35:1
Режим частоты кадров : Постоянный
Частота кадров : 23,976 кадра/сек
Цветовое пространство : YUV
Субдискретизация насыщенности : 4:2:0
Битовая глубина : 8 бит
Тип развёртки : Прогрессивная
Бит/(Пиксели*Кадры) : 0.290
Размер потока : 3,82 Гбайт (91%)
Заголовок : Soldier Blue (1970)
Библиотека кодирования : x264 core 115 r2008 4c552d8
Настройки программы : cabac=1 / ref=8 / deblock=1:-2:-1 / analyse=0x3:0x113 / me=umh / subme=10 / psy=1 / psy_rd=1.00:0.20 / mixed_ref=1 / me_range=32 / chroma_me=1 / trellis=2 / 8x8dct=1 / cqm=0 / deadzone=21,11 / fast_pskip=0 / chroma_qp_offset=-3 / threads=12 / sliced_threads=0 / nr=0 / decimate=0 / interlaced=0 / bluray_compat=0 / constrained_intra=0 / bframes=3 / b_pyramid=2 / b_adapt=2 / b_bias=0 / direct=3 / weightb=1 / open_gop=0 / weightp=2 / keyint=250 / keyint_min=23 / scenecut=40 / intra_refresh=0 / rc_lookahead=60 / rc=2pass / mbtree=1 / bitrate=4844 / ratetol=1.0 / qcomp=0.60 / qpmin=0 / qpmax=69 / qpstep=4 / cplxblur=20.0 / qblur=0.5 / vbv_maxrate=50000 / vbv_bufsize=50000 / nal_hrd=none / ip_ratio=1.40 / aq=1:1.00
Язык : English
Default : Да
Forced : Нет
Аудио #1
Идентификатор : 2
Формат : AC-3
Формат/Информация : Audio Coding 3
Расширение режима : CM (complete main)
Параметр Endianness формата : Big
Идентификатор кодека : A_AC3
Продолжительность : 1 ч. 55 м.
Вид битрейта : Постоянный
Битрейт : 192 Кбит/сек
Каналы : 2 канала
Расположение каналов : Front: L R
Частота : 48,0 КГц
Битовая глубина : 16 бит
Метод сжатия : С потерями
Размер потока : 158 Мбайт (4%)
Заголовок : DVO
Язык : Russian
Default : Да
Forced : Нет
Аудио #2
Идентификатор : 3
Формат : AC-3
Формат/Информация : Audio Coding 3
Расширение режима : CM (complete main)
Параметр Endianness формата : Big
Идентификатор кодека : A_AC3
Продолжительность : 1 ч. 55 м.
Вид битрейта : Постоянный
Битрейт : 192 Кбит/сек
Каналы : 2 канала
Расположение каналов : Front: L R
Частота : 48,0 КГц
Битовая глубина : 16 бит
Метод сжатия : С потерями
Размер потока : 158 Мбайт (4%)
Заголовок : Original
Язык : English
Default : Нет
Forced : Нет
Текст
Идентификатор : 4
Формат : UTF-8
Идентификатор кодека : S_TEXT/UTF8
Идентификатор кодека/Информация : UTF-8 Plain Text
Заголовок : Russian
Язык : Russian
Default : Да
Forced : Нет
Меню
00:00:00.000 : en:00:00:00.000
00:04:12.961 : en:00:04:12.961
00:13:01.656 : en:00:13:01.656
00:24:35.307 : en:00:24:35.307
00:31:07.908 : en:00:31:07.908
00:37:27.454 : en:00:37:27.454
00:45:42.949 : en:00:45:42.949
00:51:40.723 : en:00:51:40.723
01:00:16.029 : en:01:00:16.029
01:10:03.533 : en:01:10:03.533
01:20:28.407 : en:01:20:28.407
01:27:53.268 : en:01:27:53.268
01:34:52.478 : en:01:34:52.478
01:41:14.568 : en:01:41:14.568
01:49:28.771 : en:01:49:28.771
01:53:35.517 : en:01:53:35.517

Интересно

Этот фильм рассказывает о позорной странице в американской истории, когда во время Гражданской войны, а именно — 29 ноября 1864 года, отряд кавалерии из правительственных войск под руководством генерала Джорджа Кастера совершил кровавую резню в племени индейцев-шайеннов в Сэнд Крик, у реки Колорадо, где погибло 700 человек, включая 350 женщин и детей. Режиссёр Ралф Нелсон, который уже имел опыт работы над картинами о дискриминации негров в современной Америке, одним из первых обратился к долго замалчиваемой теме истребления индейцев: ведь в большинстве вестернов, справедливо относящихся к национальному кинематографическому жанру в США, они обычно представлялись в качестве жестоких и коварных людей, которые мешали англосаксам и прочим белым поселенцам «завоёвывать Дикий Запад». Постановщик во многом переосмыслил прежние жанровые и тематические схемы, заставив своего героя, юного солдата Хонаса Джента из отряда кавалерии (у нас в ходу у критиков был неверный перевод «Голубой солдат», хотя имелось в виду, что солдат одет в форму синего цвета, принятую тогда в армии США), пережить ужас бойни как бы «со стороны противника», увидеть кровопролитие другими глазами, с точки зрения невинных жертв. Разумеется, в ленте Нелсона ощущается перекличка с современностью — войной во Вьетнаме, историей уничтожения американскими солдатами (но уже в форме другого цвета) вьетнамской деревушки Сонгми и её беззащитных жителей. Всё повторяется, когда утаивается или же иначе трактуется прошлое, а «подвиги» солдат от минувшего века до нынешнего воспеваются в вестернах и боевиках. И нет ничего удивительного в том, что этот «вестерн» (критики поставили кавычки, понимая непохожесть фильма «Солдат в синем» на все остальные образцы жанра) не пришёлся по душе американцам. Они лицемерно обвиняли его в чрезмерной жестокости, а издание «Видео Муви Гайд», например, советовало обратиться к снятой тогда же картине «Маленький Большой Человек», где данная тема рассмотрена «гораздо лучше». Произведение Артура Пенна на самом деле лучше, но там эпизод безжалостной атаки кавалерии генерала Кастера на индейское поселение — всего лишь мгновение в жизни героя, сумевшего дожить до ста двадцати одного года. (Сергей Кудрявцев)
Скриншоты:
         
Вне форума [Профиль] [ЛС]
Показать сообщения:    
Ответить на тему

Текущее время: Сегодня 13:27

Часовой пояс: GMT + 3



Вы не можете начинать темы
Вы не можете отвечать на сообщения
Вы не можете редактировать свои сообщения
Вы не можете удалять свои сообщения
Вы не можете голосовать в опросах
Вы не можете прикреплять файлы к сообщениям
Вы не можете скачивать файлы