Сегодня идет свободное скачивание без начисления Download

Кинопроба / Audition / Odishon (1999) HDRip

Ответить на тему
 
Автор
Сообщение

UndegraundMen ®

Стаж: 3 года 9 месяцев

Сообщений: 28329

Торрент-статистика

Пост 02-Окт-2013 17:46

[Цитировать]

Кинопроба / Audition / Odishon (1999) HDRip- Год выпуска: 1999
Производство: Япония
Жанр: Ужасы, Триллер
Описание фильма:
Мужчина, семь лет назад потерявший жену, решает найти себе подругу жизни. С помощью приятеля, близкого к шоу-бизнесу, он организовывает кинопробы, которые, на самом деле становятся смотринами девушек разных возрастов и их вредных привычек. И находит, что искал…
Режиссер: Такаси Миике
Актеры: Рё Исибаси, Эйхи Сийна, Тэцу Саваки, Дзюн Кунимура, Рэндзи Исибаси, Миюки Мацуда, Тошие Негиши, Рен Осуги, Шигеру Сайки, Кен Мицуйси
Продолжительность: 01:55:35
Качество видео: HDRip
Перевод: Двуголосый закадровый, профессиональный (лицензия)

Дата мировой премьеры: 6 октября 1999
Дата российской премьеры: 9 августа 2001, «Интерсинема-Арт»
Видеокодек: Xvid
Битрейт видео: ~1412 Kb/s
Размер кадра: 720x400
Аудиокодек: AC3 5.1
Битрейт аудио: 384 kb/s
Сэмпл: Ссылка

MediaInfo:

Общее
Полное имя : C:\Торренты\Кинопроба.1999.HDRip.avi
Формат : AVI
Формат/Информация : Audio Video Interleave
Размер файла : 1,46 Гбайт
Продолжительность : 1 ч. 55 м.
Общий поток : 1806 Кбит/сек
Название фильма : Кинопроба / Audition (Odishon)
Программа кодирования : VirtualDubMod 1.5.10.2 (build 2540/release)
Формат оригинала/Имя : Movie
Видео
Идентификатор : 0
Формат : MPEG-4 Visual
Профиль формата : Advanced [email protected]
Параметр BVOP формата : 3
Параметр QPel формата : Нет
Параметр GMC формата : Без точки перехода
Параметр матрицы формата : Выборочная
Идентификатор кодека : XVID
Идентификатор кодека/Подсказка : XviD
Продолжительность : 1 ч. 55 м.
Битрейт : 1413 Кбит/сек
Ширина : 720 пикселей
Высота : 400 пикселей
Соотношение сторон : 16:9
Частота кадров : 23,976 кадра/сек
Цветовое пространство : YUV
Субдискретизация насыщенности : 4:2:0
Битовая глубина : 8 бит
Тип развёртки : Прогрессивная
Метод сжатия : С потерями
Бит/(Пиксели*Кадры) : 0.205
Размер потока : 1,14 Гбайт (78%)
Библиотека кодирования : XviD 1.2.1 (UTC 2008-12-04)
Аудио
Идентификатор : 1
Формат : AC-3
Формат/Информация : Audio Coding 3
Расширение режима : CM (complete main)
Параметр Endianness формата : Big
Идентификатор кодека : 2000
Продолжительность : 1 ч. 55 м.
Вид битрейта : Постоянный
Битрейт : 384 Кбит/сек
Каналы : 6 каналов
Расположение каналов : Front: L C R, Side: L R, LFE
Частота : 48,0 КГц
Битовая глубина : 16 бит
Метод сжатия : С потерями
Размер потока : 317 Мбайт (21%)
Выравнивание : Разделение по промежуткам
Продолжительность промежутка : 42 мс. (1,00 видеокадр)
Время предзагрузки промежутка : 500 мс.
Скриншоты:        
Вне форума [Профиль] [ЛС]
Показать сообщения:    
Ответить на тему

Текущее время: Сегодня 17:24

Часовой пояс: GMT + 3



Вы не можете начинать темы
Вы не можете отвечать на сообщения
Вы не можете редактировать свои сообщения
Вы не можете удалять свои сообщения
Вы не можете голосовать в опросах
Вы не можете прикреплять файлы к сообщениям
Вы не можете скачивать файлы