Сегодня идет свободное скачивание без начисления Download

Человек на коленях / Un uomo in ginocchio (1979) DVDRip

Ответить на тему
 
Автор
Сообщение

UndegraundMen ®

Стаж: 3 года 9 месяцев

Сообщений: 28329

Торрент-статистика

Пост 03-Окт-2013 23:00

[Цитировать]

Человек на коленях / Un uomo in ginocchio (1979) DVDRip- Русское название: Человек на коленях
Оригинальное название: Un uomo in ginocchio
Год выпуска: 1979
Жанр: Криминал, Триллер, Драма
Производство: Италия
Описание фильма:
История противостояния маленького человека и всемогущей итальянской мафии. Действие происходит приблизительно в 1970-е годы в Палермо. Нино Перальта, бывший мелкий преступник, «завязал» и стал хозяином небольшого киоска. Нино случайно оказывается вовлечён в большую криминальную разборку и решает, что находится в чёрном списке мафии. На самом деле приговор был подписан другому человеку. Антонио, киллер, подосланный мафией, начинает шантажом вымогать деньги из Перальты, которого страх вынуждает согласиться на всё.
Нино лишается киоска и всех сбережений. Он вынужден вернуться к преступному прошлому. Неожиданно на него выходит заказчик — босс мафии Винченце Фабриканте — и раскрывает Нино глаза. Единственное, что заставило Нино терпеть лишения, — собственный страх. Однако Нино, хоть и не получал смертного приговора, но всё же оказался вовлечен в дела, о которых ему знать было не обязательно. Чтобы остаться в живых, ему нужно попросить прощения, встав на колени…
На Сицилии издавна правит закон «омерты» — круговой поруки молчания: обращаться в полицию — нельзя, просить пощады у безжалостных донов — бесполезно...
Режиссер: Дамиано Дамиани
Актеры: Джулиано Джемма, Элеонора Джорджи, Микеле Плачидо, Тано Чимароза, Этторе Манни
Продолжительность: 01:45:38
Качество видео: DVDRip
Перевод: Многоголосый закадровый

Дата мировой премьеры: 13 апреля 1979
Дата выхода DVD релиза: 31 мая 2007
Видеокодек: DivX 5
Битрейт видео: ~770 Kbps
Размер кадра: 688 x 416
Аудиокодек: MP3, 2ch
Битрейт аудио: 128 kbps

MediaInfo

General
Complete name ://////Un.uomo.in.ginocchio.1979.DVDRip.avi
Format : AVI
Format/Info : Audio Video Interleave
File size : 686 MiB
Duration : 1h 45mn
Overall bit rate : 908 Kbps
Video
ID : 0
Format : MPEG-4 Visual
Format settings, BVOP : 1
Format settings, QPel : No
Format settings, GMC : No warppoints
Format settings, Matrix : Default (H.263)
Muxing mode : Packed bitstream
Codec ID : DX50
Codec ID/Hint : DivX 5
Duration : 1h 45mn
Bit rate : 770 Kbps
Width : 688 pixels
Height : 416 pixels
Display aspect ratio : 1.654
Frame rate : 25.000 fps
Color space : YUV
Chroma subsampling : 4:2:0
Bit depth : 8 bits
Scan type : Progressive
Compression mode : Lossy
Bits/(Pixel*Frame) : 0.108
Stream size : 582 MiB (85%)
Title : Video
Writing library : DivX 2682
Audio
ID : 1
Format : MPEG Audio
Format version : Version 1
Format profile : Layer 3
Mode : Joint stereo
Mode extension : MS Stereo
Codec ID : 55
Codec ID/Hint : MP3
Duration : 1h 45mn
Bit rate mode : Constant
Bit rate : 128 Kbps
Channel(s) : 2 channels
Sampling rate : 48.0 KHz
Compression mode : Lossy
Stream size : 96.7 MiB (14%)
Alignment : Split accross interleaves
Interleave, duration : 40 ms (1.00 video frame)
Interleave, preload duration : 500 ms
Title : Audio - en-US01
Скриншоты:        

О режиссёре фильма

Дамиано Дамиани
Итальянский режиссер, родился 22 июля (23 июля?) 1922 года. Учился в миланской Академии изящных искусств. В кино с 1953 (один из авторов сценария фильма "Повесть о бедных влюбленных", реж. К.Лидзани). Работал как документалист под руководством Ч.Дзаваттини. В художественном кино с 1960 года ("Губная помада").В творчестве Дамиани сосуществовали две тенденции - пристальный интерес к социальным и психологическим проблемам современного буржуазного общества - "Остров Артуро"( по Э.Моранте) и "Встреча земляков" (1963), "Скука" (1964), "Довольно сложная девушка"(1969) - все по А.Моравия, и тяготение к остросюжетному фильму с напряженным действием - "Наемный убийца" (1961), "Кто знает?" (1966, в советском прокате - "Золотая пуля"). Впоследствии обе эти линии соединились в серии фильмов, разоблачающих сицилийскую мафию и её связь с буржуазными политиками.
Фильм "День совы" (1967, в советском прокате "Сова появляется днем"), "Самая красивая жена" (1970), "Признание комиссара полиции прокурору республики" (1971), "Следствие закончено - забудьте" (1972), "Почему убивают судей" (1975) выдвинули Дамиани в число видных представителей политического кино. Фильмы "Я боюсь" (1977) и "Человек на коленях" (1979) принадлежат жанру так называемого политического детектива.
Наибольшую известность режиссеру принес телевизинный сериал "Спрут" (1984).
Время раздачи: с 09:00 до 22:00
Вне форума [Профиль] [ЛС]
Похожие темы
Форум Тема Автор Торрент Отв. Посл. сообщение
./templates/default/images/folder_dl.gif T Фильмы 2001-2010 Новый Человек-паук: Высокое напряжение / The Amazing Spider-Man 2 (Марк Уэбб) [2014 г., фэнтези, боевик, приключения, WEB-DLRip] DUB |Чистый звук Theseus
1 | 0

0 | 1407

55

2014-07-27 00:34
Theseus Последнее
./templates/default/images/folder_dl.gif Психология, Тренинг, Саморазвитие Дуглас Мосс, Алекс Нарбут | Дейл Карнеги. Как стать мастером общения с любым человеком, в любой ситуации. Все секреты, подсказки, формулы (2014) [FB2] Omen
1 | 0

0 | 597

8

2014-09-24 13:06
Omen Последнее
./templates/default/images/folder_dl.gif Обучающее видео Сергей Вячеславович Савельев - Управление мозгом человека [2015, лекция, наука, морфология, эволюция, CAMRip, rus] Omen
1 | 0

0 | 783

15

2015-04-20 18:00
Omen Последнее
./templates/default/images/folder_dl.gif Фильмы 2011-2016 Человек-муравей / Ant-Man (Пейтон Рид) [2015 г., фантастика, боевик, комедия, WEB-DLRip] DUB |iTunes Theseus
1 | 0

2 | 441

7

2016-01-02 08:15
Dracula Последнее
./templates/default/images/folder_dl.gif Обучающее видео Происхождение Человека / Human Origins Fall B 2015 [2015, Палеоантропология, WEBRip, ENG] (Видеоурок) Omen
1 | 0

0 | 352

6

2015-12-02 12:57
Omen Последнее
./templates/default/images/folder_dl.gif Компьютерная литература Михаил Пантаев | Матанализ с человеческим лицом, или Как выжить после предельного перехода. Полный курс математического анализа. Том 2 (2016) [PDF] moralis
1 | 0

0 | 288

7

2016-03-09 21:50
moralis Последнее
./templates/default/images/folder_dl.gif Учебники, справочники, энциклопедии и словари Михаил Пантаев | Матанализ с человеческим лицом, или Как выжить после предельного перехода. Полный курс математического анализа. Том 1 (2015) [PDF] moralis
1 | 0

0 | 306

4

2016-03-09 21:51
moralis Последнее
Показать сообщения:    
Ответить на тему

Текущее время: Сегодня 08:55

Часовой пояс: GMT + 3



Вы не можете начинать темы
Вы не можете отвечать на сообщения
Вы не можете редактировать свои сообщения
Вы не можете удалять свои сообщения
Вы не можете голосовать в опросах
Вы не можете прикреплять файлы к сообщениям
Вы не можете скачивать файлы