Сегодня идет свободное скачивание без начисления Download

Тварь из черной лагуны / The Creature from the Black Lagoon (1954) DVDRip

Ответить на тему
 
Автор
Сообщение

UndegraundMen ®

Стаж: 3 года 9 месяцев

Сообщений: 28329

Торрент-статистика

Пост 06-Окт-2013 05:10

[Цитировать]

Тварь из черной лагуны / The Creature from the Black Lagoon (1954) DVDRip- Год выпуска: 1954
Жанр: Ужасы, фантастика, приключения
Выпущено: США, Universal International Pictures
Описание фильма:
В глубоких амазонских дебрях, капаеться в земле палеантологическая экспедиция. Не найдя того, чего искали, ученые мужи решили проверить - а может то, что искали, отнесло течением в зловещую Черную лагуну!? Надо проверить и покапать там. Забрались, начали искать... дальше, понятно: на сцене появляеться главный герой фильма и последовательно кушает (вернее, просто убивает, безпричинно) мужественных ученых; за исключением барышни-красавицы, которую просто крадет, очевидно для продолжение рода (хотя, кто в 50-х годах о таких ужасах мог заикаться; по фильму - вероятно, просто влюбился Фильм, классический ужастик студии Universal, сняты небезизвестым мастером тогдашних ужасов Дж.Арнольдом. Смотриться наивно, но небезинтересно. У классических космических "Чужих", оказываеться были предки на Земле! Особо отмечу - подводные сьемки ( даже сегодня смотряться весьма качественно и зрелещно)..
Режиссер: Джек Арнольд
Актеры: Ричард Карлсон, Джули Адамс, Ричард Дэннинг, Антонио Морено, Нестор Пайва, Уит Бисселл, Рику Браунинг, Бен Чэпман
Продолжительность: 01:19:14
Качество видео: DVDRip
Перевод: Многоголосый закадровый профессиональный

Видеокодек: DivX 5
Битрейт видео: ~2026 kbps
Размер кадра: 640x464
Аудиокодек: AC3 2.0
Битрейт аудио: 256 kbps

MediaInfo

Код:
Общее
Полное имя                               : D:\1UP\Hudovishe_Hernoy_laguny_1954.avi
Формат                                   : AVI
Формат/Информация                        : Audio Video Interleave
Размер файла                             : 1,27 Гбайт
Продолжительность                        : 1 ч. 19 м.
Общий поток                              : 2292 Кбит/сек
Программа кодирования                    : VirtualDubMod 1.5.10.2 (build 2540/release)
Библиотека кодирования                   : VirtualDubMod build 2540/release
Видео
Идентификатор                            : 0
Формат                                   : MPEG-4 Visual
Параметр BVOP формата                    : 2
Параметр QPel формата                    : Нет
Параметр GMC формата                     : Без точки перехода
Параметр матрицы формата                 : Default (H.263)
Режим смешивания                         : Сжатый битовый поток
Идентификатор кодека                     : DX50
Идентификатор кодека/Подсказка           : DivX 5
Продолжительность                        : 1 ч. 19 м.
Битрейт                                  : 2026 Кбит/сек
Ширина                                   : 640 пикселей
Высота                                   : 464 пикселя
Соотношение сторон                       : 1,379
Частота кадров                           : 23,976 кадра/сек
Цветовое пространство                    : YUV
Субдискретизация насыщенности            : 4:2:0
Битовая глубина                          : 8 бит
Тип развёртки                            : Прогрессивная
Метод сжатия                             : С потерями
Бит/(Пиксели*Кадры)                      : 0.285
Размер потока                            : 1,12 Гбайт (88%)
Библиотека кодирования                   : DivX 6.8.3-6.8.4 (UTC 2008-06-07)
Аудио
Идентификатор                            : 1
Формат                                   : AC-3
Формат/Информация                        : Audio Coding 3
Расширение режима                        : CM (complete main)
Параметр Endianness формата              : Big
Идентификатор кодека                     : 2000
Продолжительность                        : 1 ч. 19 м.
Вид битрейта                             : Постоянный
Битрейт                                  : 256 Кбит/сек
Каналы                                   : 2 канала
Расположение каналов                     : Front: L R
Частота                                  : 48,0 КГц
Битовая глубина                          : 16 бит
Метод сжатия                             : С потерями
Размер потока                            : 145 Мбайт (11%)
Выравнивание                             : Разделение по промежуткам
Продолжительность промежутка             : 42  мс. (1,00 видеокадр)
Время предзагрузки промежутка            : 500  мс.
Скриншоты:          Время раздачи: C 8:00 до 23:00 мск. До первых пяти скачавших.
Вне форума [Профиль] [ЛС]
Показать сообщения:    
Ответить на тему

Текущее время: Сегодня 02:55

Часовой пояс: GMT + 3



Вы не можете начинать темы
Вы не можете отвечать на сообщения
Вы не можете редактировать свои сообщения
Вы не можете удалять свои сообщения
Вы не можете голосовать в опросах
Вы не можете прикреплять файлы к сообщениям
Вы не можете скачивать файлы