Сегодня идет свободное скачивание без начисления Download

Разрисованная вуаль / The Painted Veil (1934) DVDRip

Ответить на тему
 
Автор
Сообщение

UndegraundMen ®

Стаж: 3 года 9 месяцев

Сообщений: 28329

Торрент-статистика

Пост 06-Окт-2013 05:11

[Цитировать]

Разрисованная вуаль / The Painted Veil (1934) DVDRip- Год выпуска: 1934
Жанр: Мелодрама, экранизация
Выпущено: США, Metro-Goldwyn-Mayer (MGM)
Описание фильма:
Фильм с Гретой Гарбо, красивейшей женщиной всех времен. Далее, кроме этих слов, можно ничего и не говорить... По произведению Уильяма Сомерсета Моэма "Узорный покров". В Австрии Кэтрин остается одна, не считая своего вечно занятого отца, после того, как ее сестра вступила в брак, и она согласна выйти замуж за научного сотрудника, который приехал к ее отцу для решения каких-то научных изысканий, доктора Вальтера Фэна. Вальтер забирает ее с собой в Китай, где он имеет постоянную практику. На беду он часто оставляет свою молодую жену одну дома из-за своей работы. А Кэтрин все чаще начинает встречаться с представителем британского посольства Джеком Таусендом, который с готовностью предлагает свои услуги сопровождать даму, начиная от посещения экзотических мест и до бытового похода по магазинам. Опытный ловелас и тривиальный соблазнитель окружает молодую женщину таким вниманием, что Кэтрин теряет осторожность, а с ней и голову, принимая свою благодарность за внимание, со своей стороны, а с его стороны примитивный флирт за глубокое чувство. Когда Вальтер обнаруживает, что его жена увлечена Джоном, он переживает горечь разочарования, поскольку по-настоящему влюблен в свою жену....
Режиссер: Ричард Болеславский
Актеры: Грета Гарбо, Херберт Маршалл, Джордж Брент, Варнер Оланд, Джин Хершот, Бодил Роузинг, Кэтрин Александр, Сесилия Паркер, Су Йонг, Форрестер Харви, Тошиа Мори
Продолжительность: 01:20:56
Качество видео: DVDRip
Перевод: Многоголосый закадровый, профессиональный

Видеокодек: Xvid
Битрейт видео: ~1825 kbps
Размер кадра: 688x512
Аудиокодек и битрейт:
Русский - AC3 5.1, 384 kbps
Немецкий - AC3 2.0, 192 kbps

MediaInfo

Код:
Общее
Полное имя                               : D:\1UP\Razrisovannaja_vual_1934.avi
Формат                                   : AVI
Формат/Информация                        : Audio Video Interleave
Размер файла                             : 1,37 Гбайт
Продолжительность                        : 1 ч. 20 м.
Общий поток                              : 2416 Кбит/сек
Программа кодирования                    : FairUse Wizard - http://fairusewizard.com
Библиотека кодирования                   : The best and REALLY easy backup tool
Видео
Идентификатор                            : 0
Формат                                   : MPEG-4 Visual
Профиль формата                          : Advanced [email protected]
Параметр BVOP формата                    : 1
Параметр QPel формата                    : Нет
Параметр GMC формата                     : Без точки перехода
Параметр матрицы формата                 : Default (MPEG)
Режим смешивания                         : Сжатый битовый поток
Идентификатор кодека                     : XVID
Идентификатор кодека/Подсказка           : XviD
Продолжительность                        : 1 ч. 20 м.
Битрейт                                  : 1825 Кбит/сек
Ширина                                   : 688 пикселей
Высота                                   : 512 пикселей
Соотношение сторон                       : 4:3
Частота кадров                           : 25,000 кадров/сек
Цветовое пространство                    : YUV
Субдискретизация насыщенности            : 4:2:0
Битовая глубина                          : 8 бит
Тип развёртки                            : Прогрессивная
Метод сжатия                             : С потерями
Бит/(Пиксели*Кадры)                      : 0.207
Размер потока                            : 1,03 Гбайт (76%)
Библиотека кодирования                   : XviD 1.2.0.dev47 (UTC 2006-11-01)
Аудио #1
Идентификатор                            : 1
Формат                                   : AC-3
Формат/Информация                        : Audio Coding 3
Расширение режима                        : CM (complete main)
Параметр Endianness формата              : Big
Идентификатор кодека                     : 2000
Продолжительность                        : 1 ч. 20 м.
Вид битрейта                             : Постоянный
Битрейт                                  : 384 Кбит/сек
Каналы                                   : 6 каналов
Расположение каналов                     : Front: L C R, Side: L R, LFE
Частота                                  : 48,0 КГц
Битовая глубина                          : 16 бит
Метод сжатия                             : С потерями
Размер потока                            : 222 Мбайт (16%)
Выравнивание                             : Разделение по промежуткам
Продолжительность промежутка             : 40  мс. (1,00 видеокадр)
Время предзагрузки промежутка            : 500  мс.
Аудио #2
Идентификатор                            : 2
Формат                                   : AC-3
Формат/Информация                        : Audio Coding 3
Расширение режима                        : CM (complete main)
Параметр Endianness формата              : Big
Идентификатор кодека                     : 2000
Продолжительность                        : 1 ч. 20 м.
Вид битрейта                             : Постоянный
Битрейт                                  : 192 Кбит/сек
Каналы                                   : 2 канала
Расположение каналов                     : Front: L R
Частота                                  : 48,0 КГц
Битовая глубина                          : 16 бит
Метод сжатия                             : С потерями
Размер потока                            : 111 Мбайт (8%)
Выравнивание                             : Разделение по промежуткам
Продолжительность промежутка             : 40  мс. (1,00 видеокадр)
Время предзагрузки промежутка            : 500  мс.
Скриншоты:          Время раздачи: C 8:00 до 23:00 мск. До первых пяти скачавших.
Вне форума [Профиль] [ЛС]
Показать сообщения:    
Ответить на тему

Текущее время: Сегодня 14:49

Часовой пояс: GMT + 3



Вы не можете начинать темы
Вы не можете отвечать на сообщения
Вы не можете редактировать свои сообщения
Вы не можете удалять свои сообщения
Вы не можете голосовать в опросах
Вы не можете прикреплять файлы к сообщениям
Вы не можете скачивать файлы