Today is a free download without charge Download

(Thrash Metal) Kat - Metal And Hell - 1985 (2003 Re-Issue), FLAC (image+.cue), lossless

Reply to topic
 
Author
Message

Omen ®

Longevity: 7 years 6 months

Posts: 181087

Торрент-статистика

Post 08-Oct-2013 00:55

[Quote]

Kat / Metal And Hell
Жанр: Thrash Metal
Страна-производитель диска: Poland
Год издания: 1985 (2003 Re-Issue)
Издатель (лейбл): Mystic Production
Страна: Poland
Аудиокодек: FLAC (*.flac)
Тип рипа: image+.cue
Битрейт аудио: lossless
Продолжительность: 00:36
Источник (релизер): мой CD
Наличие сканов в содержимом раздачи: да
Треклист:
01. Metal And Hell 02:43
02. Killer 03:14
03. Time Of Revenge 04:47
04. Devil's House Part I 04:43
05. (You Go Me) Vampire 03:10
05. Devils Child 03:30
06. Black Hosts 03:24
07. Oracle 03:38
08. Devil's House Part III 03:38
09. 666 03:25

Лог создания рипа

Exact Audio Copy V0.99 prebeta 5 from 4. May 2009
Отчёт EAC об извлечении, выполненном 19. сентября 2013, 12:12
Kat / Metal And Hell
Дисковод: MATSHITADVD-RAM UJ8A0AS Adapter: 0 ID: 1
Режим чтения : ДостоверностьИспользование точного потока : ДаОтключение кэша аудио : ДаИспользование указателей C2 : Нет
Коррекция смещения при чтении : 102Способность читать области Lead-in и Lead-out : НетЗаполнение пропущенных сэмплов тишиной : ДаУдаление блоков с тишиной в начале и конце : НетПри вычислениях CRC использовались нулевые сэмплы : ДаИнтерфейс : Встроенный Win32-интерфейс для Win NT/2000
Выходной формат : Пользовательский кодировщикВыбранный битрейт : 1024 kBit/sКачество : ВысокийДобавление ID3-тэга : НетУтилита сжатия : C:\Program Files\Exact Audio Copy\FLAC\FLAC.EXEДополнительные параметры : -6 -V -T "ARTIST=%a" -T "TITLE=%t" -T "ALBUM=%g" -T "DATE=%y" -T "TRACKNUMBER=%n" -T "GENRE=%m" -T "COMMENT=%e" %s -o %d
TOC извлечённого CD
Трек | Старт | Длительность | Начальный сектор | Конечный сектор --------------------------------------------------------------------- 1 | 0:00.00 | 2:47.39 | 0 | 12563 2 | 2:47.39 | 3:18.36 | 12564 | 27449 3 | 6:06.00 | 4:51.08 | 27450 | 49282 4 | 10:57.08 | 4:47.30 | 49283 | 70837 5 | 15:44.38 | 3:14.21 | 70838 | 85408 6 | 18:58.59 | 3:34.33 | 85409 | 101491 7 | 22:33.17 | 3:28.11 | 101492 | 117102 8 | 26:01.28 | 3:42.50 | 117103 | 133802 9 | 29:44.03 | 3:42.20 | 133803 | 150472 10 | 33:26.23 | 3:25.26 | 150473 | 165873
Характеристики диапазона извлечения и сообщения об ошибках
Выбранный диапазон
Имя файла C:\Users\эксперт\Music\Kat - Metal And Hell.wav
Пиковый уровень 96.6 % Качество диапазона 100.0 % CRC копии C0A78168 Копирование... OK
Ошибок не произошло
AccurateRip: сводка
Трек 1 нет в базе данныхТрек 2 нет в базе данныхТрек 3 нет в базе данныхТрек 4 нет в базе данныхТрек 5 нет в базе данныхТрек 6 нет в базе данныхТрек 7 нет в базе данныхТрек 8 нет в базе данныхТрек 9 нет в базе данныхТрек 10 нет в базе данных
Ни одного трека нет в базе AccurateRip
Конец отчёта

Содержание индексной карты (.CUE)

REM GENRE "Thrash Metal"REM DATE 1985REM DISCID 8D08A30AREM COMMENT "ExactAudioCopy v0.99pb5"PERFORMER "Kat"TITLE "Metal And Hell"FILE "Kat - Metal And Hell.flac" WAVE TRACK 01 AUDIO TITLE "Metal And Hell" PERFORMER "Kat" INDEX 01 00:00:00 TRACK 02 AUDIO TITLE "Killer" PERFORMER "Kat" INDEX 00 02:43:39 INDEX 01 02:47:39 TRACK 03 AUDIO TITLE "Time Of Revenge" PERFORMER "Kat" INDEX 00 06:02:00 INDEX 01 06:06:00 TRACK 04 AUDIO TITLE "Devil's House I" PERFORMER "Kat" INDEX 00 10:53:08 INDEX 01 10:57:08 TRACK 05 AUDIO TITLE "(You Got Me) Vampire" PERFORMER "Kat" INDEX 00 15:40:38 INDEX 01 15:44:38 TRACK 06 AUDIO TITLE "Devils' Child" PERFORMER "Kat" INDEX 00 18:54:59 INDEX 01 18:58:59 TRACK 07 AUDIO TITLE "Black Hosts" PERFORMER "Kat" INDEX 00 22:29:17 INDEX 01 22:33:17 TRACK 08 AUDIO TITLE "Oracle" PERFORMER "Kat" INDEX 00 25:57:28 INDEX 01 26:01:28 TRACK 09 AUDIO TITLE "Devil's House Part III" PERFORMER "Kat" INDEX 00 29:40:03 INDEX 01 29:44:03 TRACK 10 AUDIO TITLE "666" PERFORMER "Kat" INDEX 00 33:22:23 INDEX 01 33:26:23

Состав

Roman Kostrzewski - vocals
Krzysztof Oset - bass
Piotr Luczyk - guitars
Jacek Regulski - guitars
Ireneusz Loth - drums
Other forum [Profile] [PM]
Display posts from previous:    
Reply to topic

The time now is: Today 15:46

All times are GMT + 3 Hours



You cannot post new topics in this forum
You cannot reply to topics in this forum
You cannot edit your posts in this forum
You cannot delete your posts in this forum
You cannot vote in polls in this forum
You cannot attach files in this forum
You cannot download files in this forum