Сегодня идет свободное скачивание без начисления Download

Эммануэль / Emmanuelle (1974) BDRip [H.264/720p-LQ]

Ответить на тему
 
Автор
Сообщение

UndegraundMen ®

Стаж: 3 года 9 месяцев

Сообщений: 28329

Торрент-статистика

Пост 09-Окт-2013 17:00

[Цитировать]

Эммануэль / Emmanuelle (1974) BDRip [H.264/720p-LQ]- Год выпуска: 1974
Жанр: Мелодрама, Драма, Эротика
Описание фильма:
Первый фильм о жрице любви Эммануэль. Сюжет служит канвой для описания сексуальных похождений героини в Юго-Восточной Азии. Муж Эммануэль, работающий в посольстве, поощряет в ней стремление к раскрепощенности в сексе, благо весь дипломатический корпус, особенно женщины, изнывают от скуки. За её воспитание берется уже пожилой специалист. Эммануэль делает большие успехи в искусстве любви.
Режиссер: Жюст Жэкин/ Just Jaeckin
Актеры: Ален Кюни/ Alain Cuny, Сильвия Кристель/ Sylvia Kristel, Марика Грин/ Marika Green, Даниэль Сарки/ Daniel Sarky, Жанна Коллетен/ Jeanne Colletin, Кристин Буассон/ Christine Boisson, Саманта/ Samantha, Габриэль Брайан/ Gabriel Briand, Грегори/ Gregory.
Продолжительность: 01:34:13
Качество: BDRip [исходник Blu-Ray Remux 1080p]
Перевод 1: Двухголосый закадровый (Twister)
Перевод 2: Одноголосый закадровый (Ю.Живов)
Перевод 3: Английский дублированный
Перевод 4:Французский оригинал
Вид субтитров: Вшитые

Видеокодек: MPEG-4 AVC/H.264, 1176x720(16:10), 25.000fps, 4375 Кbps, 0.215bit/pixel
Аудио 1: DVO Russian, AC3, 2ch, 48 kHz, 256 kbps, (Twister)
Аудио 2: AVO Russian, AC3, 2ch, 48 kHz, 256 kbps, (Живов)
Аудио 3: English, AC3, 2ch, 48 kHz, 256 kbps
Аудио 4: French, AC3, 2ch, 48 kHz, 256 kbps
Язык субтитров: Russian, English
Дополнительная информация: По максимому подчистил шумы (это главное отличие от всех релизов данного фильма) ибо родной Blu-Ray без слез смотреть не возможно. И та же история была и с DVD.

MediaInfo

Общее
Формат : Matroska
Версия формата : Version 4 / Version 2
Размер файла : 3,55 Гбайт
Продолжительность : 1 ч. 34 м.
Общий поток : 5401 Кбит/сек
Название фильма : Эммануэль / Emmanuelle (1974) BDRip-AVC 720p (Sinteros)
Дата кодирования : UTC 2013-10-08 14:37:30
Программа кодирования : mkvmerge v6.4.1 ('Omega Point') built on Sep 16 2013 22:05:10
Библиотека кодирования : libebml v1.3.0 + libmatroska v1.4.1
Attachment : Yes
Видео
Идентификатор : 1
Формат : AVC
Формат/Информация : Advanced Video Codec
Профиль формата : High [url=mailto:[email protected]][email protected][/url]
Параметр CABAC формата : Да
Параметр ReFrames формата : 11 кадров
Идентификатор кодека : V_MPEG4/ISO/AVC
Продолжительность : 1 ч. 34 м.
Битрейт : 4374 Кбит/сек
Ширина : 1176 пикселей
Высота : 720 пикселей
Соотношение сторон : 16:10
Режим частоты кадров : Постоянный
Частота кадров : 24,000 кадра/сек
Цветовое пространство : YUV
Субдискретизация насыщенности : 4:2:0
Битовая глубина : 10 бит
Тип развёртки : Прогрессивная
Бит/(Пиксели*Кадры) : 0.215
Размер потока : 2,81 Гбайт (79%)
Заголовок : x264, 1176x720 (16:10), 25.000fps, 4375 Кbps, 0.215bit/pixel
Библиотека кодирования : x264 core 125 r2208 d9d2288
Настройки программы : cabac=1 / ref=11 / deblock=1:-2:-1 / analyse=0x3:0x133 / me=umh / subme=10 / psy=1 / psy_rd=1.00:0.20 / mixed_ref=1 / me_range=24 / chroma_me=1 / trellis=2 / 8x8dct=1 / cqm=0 / deadzone=21,11 / fast_pskip=0 / chroma_qp_offset=-3 / threads=12 / lookahead_threads=2 / sliced_threads=0 / nr=0 / decimate=0 / interlaced=0 / bluray_compat=0 / constrained_intra=0 / bframes=4 / b_pyramid=2 / b_adapt=2 / b_bias=0 / direct=3 / weightb=1 / open_gop=0 / weightp=2 / keyint=250 / keyint_min=23 / scenecut=40 / intra_refresh=0 / rc_lookahead=60 / rc=2pass / mbtree=1 / bitrate=4374 / ratetol=1.0 / qcomp=0.60 / qpmin=0 / qpmax=81 / qpstep=4 / cplxblur=20.0 / qblur=0.5 / ip_ratio=1.40 / aq=1:1.00
Язык : French
Default : Да
Forced : Нет
Аудио #1
Идентификатор : 2
Формат : AC-3
Формат/Информация : Audio Coding 3
Расширение режима : CM (complete main)
Параметр Endianness формата : Big
Идентификатор кодека : A_AC3
Продолжительность : 1 ч. 34 м.
Вид битрейта : Постоянный
Битрейт : 256 Кбит/сек
Каналы : 2 канала
Расположение каналов : Front: L R
Частота : 48,0 КГц
Битовая глубина : 16 бит
Метод сжатия : С потерями
Размер потока : 173 Мбайт (5%)
Заголовок : DVO Russian, AC3, 2ch, 48 kHz, 256 kbps, (Twister)
Язык : Russian
Default : Да
Forced : Нет
Аудио #2
Идентификатор : 3
Формат : AC-3
Формат/Информация : Audio Coding 3
Расширение режима : CM (complete main)
Параметр Endianness формата : Big
Идентификатор кодека : A_AC3
Продолжительность : 1 ч. 34 м.
Вид битрейта : Постоянный
Битрейт : 256 Кбит/сек
Каналы : 2 канала
Расположение каналов : Front: L R
Частота : 48,0 КГц
Битовая глубина : 16 бит
Метод сжатия : С потерями
Размер потока : 173 Мбайт (5%)
Заголовок : AVO Russian, AC3, 2ch, 48 kHz, 256 kbps, (Живов)
Язык : Russian
Default : Нет
Forced : Нет
Аудио #3
Идентификатор : 4
Формат : AC-3
Формат/Информация : Audio Coding 3
Расширение режима : CM (complete main)
Параметр Endianness формата : Big
Идентификатор кодека : A_AC3
Продолжительность : 1 ч. 34 м.
Вид битрейта : Постоянный
Битрейт : 256 Кбит/сек
Каналы : 2 канала
Расположение каналов : Front: L R
Частота : 48,0 КГц
Битовая глубина : 16 бит
Метод сжатия : С потерями
Размер потока : 173 Мбайт (5%)
Заголовок : Dub English, AC3, 2ch, 48 kHz, 256 kbps
Язык : English
Default : Нет
Forced : Нет
Аудио #4
Идентификатор : 5
Формат : AC-3
Формат/Информация : Audio Coding 3
Расширение режима : CM (complete main)
Параметр Endianness формата : Big
Идентификатор кодека : A_AC3
Продолжительность : 1 ч. 34 м.
Вид битрейта : Постоянный
Битрейт : 256 Кбит/сек
Каналы : 2 канала
Расположение каналов : Front: L R
Частота : 48,0 КГц
Битовая глубина : 16 бит
Метод сжатия : С потерями
Размер потока : 173 Мбайт (5%)
Заголовок : French, AC3, 2ch, 48 kHz, 256 kbps
Язык : French
Default : Нет
Forced : Нет
Текст #1
Идентификатор : 6
Формат : UTF-8
Идентификатор кодека : S_TEXT/UTF8
Идентификатор кодека/Информация : UTF-8 Plain Text
Заголовок : Russian
Язык : Russian
Default : Нет
Forced : Нет
Текст #2
Идентификатор : 7
Формат : UTF-8
Идентификатор кодека : S_TEXT/UTF8
Идентификатор кодека/Информация : UTF-8 Plain Text
Заголовок : English
Язык : English
Default : Нет
Forced : Нет
Скриншоты:
         
         
Время раздачи: Пн-Пт с 18:00 до 02:00, Сб-Вс с 14:00 до 02:00
Вне форума [Профиль] [ЛС]
Показать сообщения:    
Ответить на тему

Текущее время: Сегодня 05:11

Часовой пояс: GMT + 3



Вы не можете начинать темы
Вы не можете отвечать на сообщения
Вы не можете редактировать свои сообщения
Вы не можете удалять свои сообщения
Вы не можете голосовать в опросах
Вы не можете прикреплять файлы к сообщениям
Вы не можете скачивать файлы