Today is a free download without charge Download

Остров Сокровищ / Treasure Island (Байрон Хэскин / Bayron Haskin)[1950.,Приключения, Семейный] DVDRip

Reply to topic
 
Author
Message

sashau ®

Gender:

Longevity: 7 years 11 months

Posts: 3497

Торрент-статистика

Post 10-Oct-2013 12:15

[Quote]

Остров Сокровищ / Treasure Island - Год выпуска: 1950
Жанр: Приключения, Семейный
Описание фильма:
Во многом вольная экранизация от студии Walt Disney. Предназначенная в первую очередь для детской аудитории. Особо стоит отметить великолепную актерскую игру Роберта Ньютона (Сильвер). Сильвер в его исполнении вызывает больше положительных эмоций, чем отрицательных и никого не оставит равнодушным.
Режиссер: Байрон Хэскин / Bayron Haskin
Актеры: Бобби Дрисколл, Роберт Ньютон, Бейзил Сидни, Уолтер Фицджералд, Дэнис О`Ди, Финлэй Карри, Ральф Труман, Джеффри Кин, Джеффри Уилкинсон, Джон Лори
Продолжительность: 01:35:50
Качество видео: DVDRip
Перевод: Одноголосый закадровый
Вид субтитров: Отдельным файлом русские, английские

Видеокодек: Xvid
Битрейт видео: ~1597 Кбит/сек
Размер кадра: 704x528
Aудио 1: AC3, 2 ch, 128 Кбит/сек - русский
Aудио 2: AC3, 6 ch, 448 Кбит/сек - английский

MediaInfo:

Общее
Полное имя : W:\Интересно\Остров Сокровищ\Остров Сокровищ (1950) DVDRip\Ostrov_Sokrovich.avi
Формат : AVI
Формат/Информация : Audio Video Interleave
Размер файла : 1,46 Гбайт
Продолжительность : 1 ч. 35 м.
Общий поток : 2187 Кбит/сек
Программа кодирования : VirtualDubMod 1.5.10.2 (build 2540/release)
Библиотека кодирования : VirtualDubMod build 2540/release
Видео
Идентификатор : 0
Формат : MPEG-4 Visual
Профиль формата : Advanced [email protected]
Параметр BVOP формата : 2
Параметр QPel формата : Нет
Параметр GMC формата : Без точки перехода
Параметр матрицы формата : Выборочная
Режим смешивания : Сжатый битовый поток
Идентификатор кодека : XVID
Идентификатор кодека/Подсказка : XviD
Продолжительность : 1 ч. 35 м.
Битрейт : 1597 Кбит/сек
Ширина : 704 пикселя
Высота : 528 пикселей
Соотношение сторон : 4:3
Частота кадров : 23,976 кадра/сек
Цветовое пространство : YUV
Субдискретизация насыщенности : 4:2:0
Битовая глубина : 8 бит
Тип развёртки : Прогрессивная
Метод сжатия : С потерями
Бит/(Пиксели*Кадры) : 0.179
Размер потока : 1,07 Гбайт (73%)
Библиотека кодирования : XviD 1.2.0.dev47 (UTC 2006-11-01)
Аудио #1
Идентификатор : 1
Формат : MPEG Audio
Версия формата : Version 1
Профиль формата : Layer 3
Режим : Joint stereo
Расширение режима : MS Stereo
Идентификатор кодека : 55
Идентификатор кодека/Подсказка : MP3
Продолжительность : 1 ч. 35 м.
Вид битрейта : Постоянный
Битрейт : 128 Кбит/сек
Каналы : 2 канала
Частота : 48,0 КГц
Метод сжатия : С потерями
Размер потока : 87,7 Мбайт (6%)
Выравнивание : Соединение по промежуткам
Продолжительность промежутка : 42 мс. (1,00 видеокадр)
Время предзагрузки промежутка : 504 мс.
Аудио #2
Идентификатор : 2
Формат : AC-3
Формат/Информация : Audio Coding 3
Расширение режима : CM (complete main)
Параметр Endianness формата : Big
Идентификатор кодека : 2000
Продолжительность : 1 ч. 35 м.
Вид битрейта : Постоянный
Битрейт : 448 Кбит/сек
Каналы : 6 каналов
Расположение каналов : Front: L C R, Side: L R, LFE
Частота : 48,0 КГц
Битовая глубина : 16 бит
Метод сжатия : С потерями
Размер потока : 307 Мбайт (20%)
Выравнивание : Разделение по промежуткам
Продолжительность промежутка : 42 мс. (1,00 видеокадр)
Время предзагрузки промежутка : 500 мс.
Скриншоты:          
         
Фильм 2 "Долговязый Джон Сильвер / Long John Silver (1954)" на Dark os
Other forum [Profile] [PM]
Similar theme
Forum Topic Author Torrent Replies Last Post
./templates/default/images/folder_dl.gif Компьютерная литература Подборка книг | Литература по сайтостроению [22 книги] (2008-2013) [FB2] Omen
1 | 0

0 | 2561

25

2014-12-24 12:14
Omen Latest
Display posts from previous:    
Reply to topic

The time now is: Today 10:16

All times are GMT + 3 Hours



You cannot post new topics in this forum
You cannot reply to topics in this forum
You cannot edit your posts in this forum
You cannot delete your posts in this forum
You cannot vote in polls in this forum
You cannot attach files in this forum
You cannot download files in this forum