Сегодня идет свободное скачивание без начисления Download

Конвой / Convoy (1978) BDRip [1080p]

Ответить на тему
 
Автор
Сообщение

UndegraundMen ®

Стаж: 3 года 9 месяцев

Сообщений: 28329

Торрент-статистика

Пост 10-Окт-2013 23:00

[Цитировать]

Конвой / Convoy (1978) BDRip-
Год выпуска: 1978
Страна: США, Великобритания
Жанр: Боевик, Драма, Комедия-Описание фильма:
Мощный конвой грузовиков, вздымающих тучи пыли, движется к границе штата юго-западной части Америки.Массивную коллекцию машин всех размеров и очертаний ведет «Резиновый утенок», легендарный водитель-дальнобойщик, который собрал армию единомышленников, протестуя против полицейской коррупции, государственных законов и теневой политики.-Режиссер: Сэм Пекинпа
Актеры: Крис Кристофферсон, Эли МакГроу, Берт Янг, Мэдж Синклэр, Фрэнклин Аджайе, Брайан Дэвис, Сеймур Кэссел, Кэсси Йэйтс, Уолтер Келли, Эрнест Боргнайн
Продолжительность: 01:51:06
Качество видео: BDRip 1080p
Перевод: Дублированный (со вставками многоголосного ОРТ, на не переведенные места)
Язык субтитров: Английский
Вид субтитров: Вшитые отключаемые

Дата мировой премьеры: 28 июня 1978
Дата выхода DVD релиза: 3 августа 2010, «Юниверсал Пикчерс Рус»
Дата выхода Blu-Ray релиза: 30 сентября 2013, «Studio Canal»
Видеокодек: MPEG-4 AVC/H.264
Битрейт видео: ~10,5 Мбит/сек
Размер кадра: 1920х816
Аудиокодек: AC3 , DTS
Аудио #1: Русский ( AC3 / 2.0 / 48 kHz / 192 kbps ) - Дубляж
Аудио #2: Английский ( DTS / 5.1 / 48 kHz / 768 kbps )
-

MediaInfo:

Цитата: Общее
Уникальный идентификатор : 219823010717019292792457926294449732548 (0xA5605F338FEAC93292C8BE3EE8DCBBC4)
Полное имя : Конвой _ Convoy (1978) BDRip [1080p].mkv
Формат : Matroska
Версия формата : Version 2
Размер файла : 8,89 Гбайт
Продолжительность : 1 ч. 51 м.
Общий поток : 11,5 Мбит/сек
Дата кодирования : UTC 2013-10-10 05:25:20
Программа кодирования : mkvmerge v4.0.0 ('The Stars were mine') сборка от Jun 6 2010 16:18:42
Библиотека кодирования : libebml v1.0.0 + libmatroska v1.0.0
Видео
Идентификатор : 1
Формат : AVC
Формат/Информация : Advanced Video Codec
Профиль формата : [url=mailto:[email protected]][email protected][/url]
Параметр CABAC формата : Да
Параметр ReFrames формата : 5 кадров
Идентификатор кодека : V_MPEG4/ISO/AVC
Продолжительность : 1 ч. 51 м.
Битрейт : 10,5 Мбит/сек
Ширина : 1920 пикселей
Высота : 816 пикселей
Соотношение сторон : 2,35:1
Режим частоты кадров : Постоянный
Частота кадров : 23,976 кадра/сек
Цветовое пространство : YUV
Субдискретизация насыщенности : 4:2:0
Битовая глубина : 8 бит
Тип развёртки : Прогрессивная
Бит/(Пиксели*Кадры) : 0.279
Размер потока : 7,97 Гбайт (90%)
Библиотека кодирования : x264 core 138 r2358kMod 9e941d1
Настройки программы : cabac=1 / ref=5 / deblock=1:-3:-3 / analyse=0x3:0x133 / me=umh / subme=8 / psy=1 / fade_compensate=0.00 / psy_rd=1.00:0.15 / mixed_ref=1 / me_range=16 / chroma_me=1 / trellis=1 / 8x8dct=1 / cqm=0 / deadzone=21,11 / fast_pskip=0 / chroma_qp_offset=-3 / threads=12 / lookahead_threads=2 / sliced_threads=0 / nr=0 / decimate=1 / interlaced=0 / bluray_compat=0 / constrained_intra=0 / bframes=3 / b_pyramid=2 / b_adapt=2 / b_bias=0 / direct=3 / weightb=1 / open_gop=0 / weightp=2 / keyint=240 / keyint_min=23 / scenecut=40 / intra_refresh=0 / rc_lookahead=50 / rc=2pass / mbtree=1 / bitrate=10497 / ratetol=1.0 / qcomp=0.60 / qpmin=0 / qpmax=69 / qpstep=4 / cplxblur=20.0 / qblur=0.5 / ip_ratio=1.40 / aq=1:1.00
Язык : English
Default : Нет
Forced : Нет
Аудио #1
Идентификатор : 2
Формат : AC-3
Формат/Информация : Audio Coding 3
Расширение режима : CM (complete main)
Параметр Endianness формата : Big
Идентификатор кодека : A_AC3
Продолжительность : 1 ч. 51 м.
Вид битрейта : Постоянный
Битрейт : 192 Кбит/сек
Каналы : 2 канала
Расположение каналов : Front: L R
Частота : 48,0 КГц
Битовая глубина : 16 бит
Метод сжатия : С потерями
Размер потока : 153 Мбайт (2%)
Заголовок : Дубляж (со вставками многоголосного ОРТ, на не переведенные места)
Язык : Russian
Default : Нет
Forced : Нет
Аудио #2
Идентификатор : 3
Формат : DTS
Формат/Информация : Digital Theater Systems
Режим : 16
Параметр Endianness формата : Big
Идентификатор кодека : A_DTS
Продолжительность : 1 ч. 51 м.
Вид битрейта : Постоянный
Битрейт : 768 Кбит/сек
Каналы : 2 канала
Расположение каналов : Front: L R
Частота : 48,0 КГц
Битовая глубина : 24 бит
Метод сжатия : С потерями
Задержка видео : 11 мс.
Размер потока : 610 Мбайт (7%)
Язык : English
Default : Нет
Forced : Нет
Текст #1
Идентификатор : 4
Формат : UTF-8
Идентификатор кодека : S_TEXT/UTF8
Идентификатор кодека/Информация : UTF-8 Plain Text
Заголовок : SDH
Язык : English
Default : Нет
Forced : Нет
Текст #2
Идентификатор : 5
Формат : UTF-8
Идентификатор кодека : S_TEXT/UTF8
Идентификатор кодека/Информация : UTF-8 Plain Text
Язык : English
Default : Нет
Forced : Нет
Меню
00:00:00.000 : en:00:00:00.000
00:03:09.398 : en:00:03:09.398
00:09:05.295 : en:00:09:05.295
00:13:22.927 : en:00:13:22.927
00:20:23.764 : en:00:20:23.764
00:29:11.750 : en:00:29:11.750
00:35:30.795 : en:00:35:30.795
00:39:51.556 : en:00:39:51.556
00:48:22.149 : en:00:48:22.149
01:00:54.985 : en:01:00:54.985
01:20:15.477 : en:01:20:15.477
01:40:18.846 : en:01:40:18.846
-Скриншоты:

                   


Время раздачи: с 10:00 до 23:00 ежедневно
Вне форума [Профиль] [ЛС]
Показать сообщения:    
Ответить на тему

Текущее время: Сегодня 09:47

Часовой пояс: GMT + 3



Вы не можете начинать темы
Вы не можете отвечать на сообщения
Вы не можете редактировать свои сообщения
Вы не можете удалять свои сообщения
Вы не можете голосовать в опросах
Вы не можете прикреплять файлы к сообщениям
Вы не можете скачивать файлы