Сегодня идет свободное скачивание без начисления Download

Похититель душ / Sjaeletyven (1916) TVRip

Ответить на тему
 
Автор
Сообщение

UndegraundMen ®

Стаж: 3 года 9 месяцев

Сообщений: 28329

Торрент-статистика

Пост 14-Окт-2013 23:00

[Цитировать]

Похититель душ / Sjaeletyven (1916) TVRip- Год выпуска: 1916
Жанр: Ужасы
Производство: Дания / Nordisk Film A/S
Описание фильма:
В небольшом городке происходит таинственная череда краж драгоценностей у самых богатых и влиятельных горожан. Ни улик, ни следов взлома грабитель не оставляет. За расследования этого странного дела берется детектив Джуриан Фокс. Никто не подозревает, насколько таинственен и коварен злоумышленник. Фильм снят в ярких экспрессионистских тонах.
Режиссер: Форест Хольгер-Мадсен
Актеры: Гуннар Толнес, Чарльз Вилькенс, Йоханне Фритс-Петерсен, Искадновский, Филип Бек, Франс Сконруп
Продолжительность: 00:42:09
Качество видео: TVRip
Перевод: Немой
Язык субтитров: Русский
Вид субтитров: Отдельным файлом

Дата мировой премьеры: 10 августа 1916
Видео: MPEG4, XviD, 512x384 (4:3), 25.000 fps, 2 063 Kbps (0.420 bit/pixel)
Аудио: MP3, 44.1 KHz, 2 ch, 160 Kbps, CBR

MI

General
Complete name : D:\Видео\Sjaeletyven\Sjaeletyven.avi
Format : AVI
Format/Info : Audio Video Interleave
File size : 673 MiB
Duration : 42mn 9s
Overall bit rate : 2 233 Kbps
Writing library : VirtualDub build 32842/release
Video
ID : 0
Format : MPEG-4 Visual
Format profile : Advanced [email protected]
Format settings, BVOP : 1
Format settings, QPel : No
Format settings, GMC : No warppoints
Format settings, Matrix : Default (MPEG)
Codec ID : XVID
Codec ID/Hint : XviD
Duration : 42mn 9s
Bit rate : 2 063 Kbps
Width : 512 pixels
Height : 384 pixels
Display aspect ratio : 4:3
Frame rate : 25.000 fps
Color space : YUV
Chroma subsampling : 4:2:0
Bit depth : 1 bit
Scan type : Progressive
Compression mode : Lossy
Bits/(Pixel*Frame) : 0.420
Stream size : 622 MiB (92%)
Writing library : XviD 1.2.0.dev47 (UTC 2006-11-01)
Audio
ID : 1
Format : MPEG Audio
Format version : Version 1
Format profile : Layer 3
Codec ID : 55
Codec ID/Hint : MP3
Duration : 42mn 9s
Bit rate mode : Constant
Bit rate : 160 Kbps
Channel(s) : 2 channels
Sampling rate : 44.1 KHz
Compression mode : Lossy
Stream size : 48.2 MiB (7%)
Alignment : Split accross interleaves
Interleave, duration : 40 ms (1.00 video frame)
Interleave, preload duration : 500 ms
Скриншоты:
         
       

Рецензия, отзыв о фильме

Удивительный фильм. Кажется, Хольгер-Мадсен был магом, опередившим свое время. Мы это видели в его фантастической картине «Путешествие на Марс» — первом полнометражном фильме о космических путешествиях. Следующая картина в этом жанре появится только через 10 лет. Мы это видим в «Похитителе душ» — фильме, предвосхитившем все визуальные открытия немецких экспрессионистов 20-х годов.
Фридрих Мурнау назвал свой знаменитый фильм о вампире «Носферату, симфония ужаса», картина Хольгер-Мадсена это симфония ужаса, света и тени.
Никогда в раннем кино не доводилось видеть столь филигранной работы со светом. Кажется, свет и есть главный герой ленты, именно игра света и тени пробуждают тех монстров нашего подсознания, которые так нас пугают в настоящих атмосферных хоррорах.
Отдельно стоит остановиться на образе доктора Ансельмуса Хармоди. Несомненно, всякий, кто хоть немного знаком с немецким кинематографом дозвукового периода, узнает в этом образе и доктора Мабузе, и доктора Калигари, который, на мой взгляд, чуть более, чем полностью списан со своего датского коллеги.
А ведь из поколения в поколение киноведческие книжки нас учат, что хорроры это порождение сумрачного немецкого гения, а Эверс, Вегенер, Вине — повивальные бабки его. Не пора ли переписать историю жанра?
10 из 10
Время раздачи: 24/7
Вне форума [Профиль] [ЛС]
Показать сообщения:    
Ответить на тему

Текущее время: Сегодня 17:21

Часовой пояс: GMT + 3



Вы не можете начинать темы
Вы не можете отвечать на сообщения
Вы не можете редактировать свои сообщения
Вы не можете удалять свои сообщения
Вы не можете голосовать в опросах
Вы не можете прикреплять файлы к сообщениям
Вы не можете скачивать файлы