Сегодня идет свободное скачивание без начисления Download

Лола Монтес / Lola Montes (1955) BDRip [H.264]

Ответить на тему
 
Автор
Сообщение

UndegraundMen ®

Стаж: 3 года 9 месяцев

Сообщений: 28329

Торрент-статистика

Пост 14-Окт-2013 23:00

[Цитировать]

Лола Монтес / Lola Montes (1955) BDRip [H.264]- Год выпуска: 1955
Производство: Франция, Германия (ФРГ)
Жанр: Драма, Мелодрама
Описание фильма:
Фильм, поставленный по неопубликованному роману "Необычайная жизнь Лолы Монтес" ("La Vie Extraordinaire de Lola Montes") Сесиль Сент-Лоран, является величайшим достижением режиссера Макса Офюльса. Немолодая, но всё ещё очаровательная танцовщица и авантюристка Лола Монтес даёт последнее представление в цирке, отвечая на глупые вопросы публики. В цветном и хаотичном водовороте перед зрителями пролетает её жизнь.
Режиссер: Макс Офюльс / Max Ophuls
Актеры: Мартина Кароль / Martine Carol/, Питер Устинов / Peter Ustinov/, Энтон Уолбрук / Anton Walbrook/, Иван Десны / Ivan Desny/, Оскар Вернер / Oskar Werner/, Полетт Дюбо / Paulette Dubost/, Лиз Деламар / Lise Delamare/, Анри Гизоль / Henri Guisol/, Уилл Куодфлиг / Will Quadflieg/, Хелена Мансон / Helena Manson/
Продолжительность: 01:55:33
Качество видео: BDRip
Перевод: Многоголосый закадровый
Вид субтитров: Вшитые отключаемые русские

Видеокодек: MPEG-4 AVC/H.264
Битрейт видео: ~2890 Кбит/сек
Размер кадра: 1052x412
Аудиокодек: AC3 2.0
Битрейт аудио: 192 Кбит/сек
Аудио #1: French; AC3; 384 kbps; 3 ch - оригинальный французский
Аудио #2: Russian; AC3; 384 kbps; 3 ch - многоголосый русский
Аудио #3: Russian; AC3; 96 kbps; 1 ch - русский комментарии Ю. Сербина
Аудио #4: English; AC3, 2.0, 192 kbps - комментарии на английском

MediaInfo:

Общее
Уникальный идентификатор : 181448358420050286320150880485970150831 (0x8881AEC462BE833EB11E745C2F8A05AF)
Полное имя : W:\Интересно\Лола Монтес Lola Montes Lola Montes 1955 BDRip-AVC\Лола Монтес (1955) BDRip [H.264].mkv
Формат : Matroska
Версия формата : Version 2
Размер файла : 3,19 Гбайт
Продолжительность : 1 ч. 55 м.
Общий поток : 3946 Кбит/сек
Дата кодирования : UTC 2013-10-14 13:40:56
Программа кодирования : mkvmerge v5.2.1 ('A Far Off Place') built on Jan 2 2012 23:21:10
Библиотека кодирования : libebml v1.2.3 + libmatroska v1.3.0
Видео
Идентификатор : 1
Формат : AVC
Формат/Информация : Advanced Video Codec
Профиль формата : [url=mailto:[email protected]][email protected][/url]
Параметр CABAC формата : Да
Параметр ReFrames формата : 13 кадров
Режим смешивания : Header stripping
Идентификатор кодека : V_MPEG4/ISO/AVC
Продолжительность : 1 ч. 55 м.
Битрейт : 2890 Кбит/сек
Ширина : 1052 пикселя
Высота : 412 пикселей
Соотношение сторон : 2,553
Режим частоты кадров : Постоянный
Частота кадров : 23,976 кадра/сек
Цветовое пространство : YUV
Субдискретизация насыщенности : 4:2:0
Битовая глубина : 8 бит
Тип развёртки : Прогрессивная
Бит/(Пиксели*Кадры) : 0.278
Размер потока : 2,27 Гбайт (71%)
Библиотека кодирования : x264 core 112 r1867 22bfd31
Настройки программы : cabac=1 / ref=13 / deblock=1:-2:-1 / analyse=0x3:0x133 / me=umh / subme=10 / psy=1 / psy_rd=1.10:0.05 / mixed_ref=1 / me_range=32 / chroma_me=1 / trellis=2 / 8x8dct=1 / cqm=0 / deadzone=21,11 / fast_pskip=0 / chroma_qp_offset=-3 / threads=12 / sliced_threads=0 / nr=0 / decimate=0 / interlaced=0 / constrained_intra=0 / bframes=11 / b_pyramid=2 / b_adapt=2 / b_bias=0 / direct=3 / weightb=1 / open_gop=0 / weightp=2 / keyint=250 / keyint_min=23 / scenecut=40 / intra_refresh=0 / rc=2pass / mbtree=0 / bitrate=2890 / ratetol=1.0 / qcomp=0.60 / qpmin=0 / qpmax=51 / qpstep=4 / cplxblur=20.0 / qblur=0.5 / ip_ratio=1.40 / pb_ratio=1.20 / aq=1:1.00
Язык : French
Default : Да
Forced : Нет
Аудио #1
Идентификатор : 2
Формат : AC-3
Формат/Информация : Audio Coding 3
Расширение режима : CM (complete main)
Параметр Endianness формата : Big
Режим смешивания : Header stripping
Идентификатор кодека : A_AC3
Продолжительность : 1 ч. 55 м.
Вид битрейта : Постоянный
Битрейт : 384 Кбит/сек
Каналы : 3 канала
Расположение каналов : Front: L C R
Частота : 48,0 КГц
Битовая глубина : 16 бит
Метод сжатия : С потерями
Размер потока : 317 Мбайт (10%)
Заголовок : Original
Язык : French
Default : Нет
Forced : Нет
Аудио #2
Идентификатор : 3
Формат : AC-3
Формат/Информация : Audio Coding 3
Расширение режима : CM (complete main)
Параметр Endianness формата : Big
Режим смешивания : Header stripping
Идентификатор кодека : A_AC3
Продолжительность : 1 ч. 55 м.
Вид битрейта : Постоянный
Битрейт : 384 Кбит/сек
Каналы : 3 канала
Расположение каналов : Front: L C R
Частота : 48,0 КГц
Битовая глубина : 16 бит
Метод сжатия : С потерями
Размер потока : 317 Мбайт (10%)
Заголовок : MVO
Язык : Russian
Default : Да
Forced : Нет
Аудио #3
Идентификатор : 4
Формат : AC-3
Формат/Информация : Audio Coding 3
Расширение режима : CM (complete main)
Параметр Endianness формата : Big
Режим смешивания : Header stripping
Идентификатор кодека : A_AC3
Продолжительность : 1 ч. 55 м.
Вид битрейта : Постоянный
Битрейт : 96,0 Кбит/сек
Каналы : 1 канал
Расположение каналов : Front: C
Частота : 48,0 КГц
Битовая глубина : 16 бит
Метод сжатия : С потерями
Размер потока : 79,3 Мбайт (2%)
Заголовок : Ю. Сербин. Commentary featuring Max Ophuls scholar Susan White
Язык : Russian
Default : Нет
Forced : Нет
Аудио #4
Идентификатор : 5
Формат : AC-3
Формат/Информация : Audio Coding 3
Расширение режима : CM (complete main)
Параметр Endianness формата : Big
Режим смешивания : Header stripping
Идентификатор кодека : A_AC3
Продолжительность : 1 ч. 55 м.
Вид битрейта : Постоянный
Битрейт : 192 Кбит/сек
Каналы : 2 канала
Расположение каналов : Front: L R
Частота : 48,0 КГц
Битовая глубина : 16 бит
Метод сжатия : С потерями
Размер потока : 159 Мбайт (5%)
Заголовок : Commentary featuring Max Ophuls scholar Susan White
Язык : English
Default : Нет
Forced : Нет
Текст
Идентификатор : 6
Формат : UTF-8
Идентификатор кодека : S_TEXT/UTF8
Идентификатор кодека/Информация : UTF-8 Plain Text
Язык : Russian
Default : Нет
Forced : Нет
Меню
00:00:00.000 : en:1. "Nothing But the Truth"
00:06:13.331 : en:2. Questions
00:10:50.900 : en:3. "Life For Me Is..."
00:16:13.097 : en:4. An Affectionate Farewell
00:22:23.884 : en:5. The Dormitory
00:28:38.425 : en:6. Between Two Worlds
00:32:29.072 : en:7. A Husband For Lola
00:38:10.287 : en:8. Married Life
00:41:33.199 : en:9. The Ambassador and the Dancer
00:45:55.252 : en:10. The Show Must Go On
00:50:09.840 : en:11. Scandal and Sensation
00:53:18.194 : en:12. A Proposition
00:58:16.951 : en:13. "Higher, Lola, Higher"
01:01:15.421 : en:14. Bavaria
01:06:30.903 : en:15. Lola and the King
01:13:56.890 : en:16. An Invitation to Stay
01:21:14.911 : en:17. Three Months and Ten Days
01:24:19.554 : en:18. Lola Takes Charge
01:28:11.452 : en:19. Revolution!
01:34:43.094 : en:20. Help From a Young Friend
01:41:01.972 : en:21. Lola Without Hope
01:45:23.859 : en:22. Lola's Leap
Скриншоты:
         
         
Время раздачи: С 10:00 до 23:00
Вне форума [Профиль] [ЛС]
Показать сообщения:    
Ответить на тему

Текущее время: Сегодня 13:15

Часовой пояс: GMT + 3



Вы не можете начинать темы
Вы не можете отвечать на сообщения
Вы не можете редактировать свои сообщения
Вы не можете удалять свои сообщения
Вы не можете голосовать в опросах
Вы не можете прикреплять файлы к сообщениям
Вы не можете скачивать файлы