Today is a free download without charge Download

Расмус-бродяга / Rasmus pa luffen (Олле Хеллбом / Olle Hellbom)[1981.,Олле Хеллбом / Olle Hellbom] DVDRip

Reply to topic
 
Author
Message

sashau ®

Gender:

Longevity: 8 years

Posts: 3497

Торрент-статистика

Post 16-Oct-2013 19:20

[Quote]

Расмус-бродяга / Rasmus pa luffen - Год выпуска: 1981
Производство: Швеция
Жанр: Семейный, Приключения
Описание фильма:
По мотивам одноименной повести Астрид Линдгрен. О приключениях мальчика Расмуса, сбежавшего из приюта, и его друга — странствующего поэта Оскара. Действие происходит в Швеции в начале XX века. Расмус — мальчик, который живёт в приюте. Не выдерживая тюремных порядков и придирок управляющей фрекен Хёк, он убегает из приюта и присоединяется к бродяге и барду по прозвищу Оскар Перекати-поле. Они начинают вместе путешествовать по стране. Ему предстоит пережить немало неожиданных и таинственных приключений ...
Режиссер: Олле Хеллбом / Olle Hellbom
Актеры: Allan Edwall, Erik Lindgren,Lars Amble, Emy Storm, Lena Nyman, Hakan Serner, Jarl Kulle, Pal Steen
Продолжительность: 01:40:55
Качество видео: DVDRip
Перевод: Одноголосый закадровый


Видеокодек: Xvid
Битрейт видео: ~1300 Кбит/сек
Размер кадра: 720x416
Аудиокодек: AC3 2.0
Битрейт аудио: 192 Кбит/сек
Audio 1: AC3, 2.0, 192Кбит/сек - Русский одноголосый
Audio 2: AC3, 2.0, 160 Кбит/сек - Оригинальный шведский

MediaInfo:

Общее
Полное имя : W:\Интересно\Расмус-бродяга 1981\Расмус-бродяга (1981) DVDRip.avi
Формат : AVI
Формат/Информация : Audio Video Interleave
Размер файла : 1,17 Гбайт
Продолжительность : 1 ч. 40 м.
Общий поток : 1667 Кбит/сек
Программа кодирования : VirtualDubModRus 1.5.10.2 (build 2540/release)
Библиотека кодирования : VirtualDubMod build 2540/release
Видео
Идентификатор : 0
Формат : MPEG-4 Visual
Профиль формата : Advanced [email protected]
Параметр BVOP формата : 2
Параметр QPel формата : Нет
Параметр GMC формата : Без точки перехода
Параметр матрицы формата : Default (H.263)
Режим смешивания : Сжатый битовый поток
Идентификатор кодека : XVID
Идентификатор кодека/Подсказка : XviD
Продолжительность : 1 ч. 40 м.
Битрейт : 1300 Кбит/сек
Ширина : 720 пикселей
Высота : 416 пикселей
Соотношение сторон : 1,731
Частота кадров : 25,000 кадров/сек
Цветовое пространство : YUV
Субдискретизация насыщенности : 4:2:0
Битовая глубина : 8 бит
Тип развёртки : Прогрессивная
Метод сжатия : С потерями
Бит/(Пиксели*Кадры) : 0.174
Размер потока : 939 Мбайт (78%)
Библиотека кодирования : XviD 1.2.1 (UTC 2008-12-04)
Аудио #1
Идентификатор : 1
Формат : MPEG Audio
Версия формата : Version 1
Профиль формата : Layer 3
Режим : Joint stereo
Идентификатор кодека : 55
Идентификатор кодека/Подсказка : MP3
Продолжительность : 1 ч. 40 м.
Вид битрейта : Постоянный
Битрейт : 192 Кбит/сек
Каналы : 2 канала
Частота : 48,0 КГц
Метод сжатия : С потерями
Размер потока : 139 Мбайт (12%)
Выравнивание : Соединение по промежуткам
Продолжительность промежутка : 40 мс. (1,00 видеокадр)
Время предзагрузки промежутка : 504 мс.
Аудио #2
Идентификатор : 2
Формат : MPEG Audio
Версия формата : Version 1
Профиль формата : Layer 3
Режим : Dual mono
Идентификатор кодека : 55
Идентификатор кодека/Подсказка : MP3
Продолжительность : 1 ч. 40 м.
Вид битрейта : Постоянный
Битрейт : 160 Кбит/сек
Каналы : 2 канала
Частота : 48,0 КГц
Метод сжатия : С потерями
Размер потока : 116 Мбайт (10%)
Выравнивание : Разделение по промежуткам
Продолжительность промежутка : 40 мс. (1,00 видеокадр)
Время предзагрузки промежутка : 500 мс.
Скриншоты:
         
         
Other forum [Profile] [PM]
Display posts from previous:    
Reply to topic

The time now is: Today 10:05

All times are GMT + 3 Hours



You cannot post new topics in this forum
You cannot reply to topics in this forum
You cannot edit your posts in this forum
You cannot delete your posts in this forum
You cannot vote in polls in this forum
You cannot attach files in this forum
You cannot download files in this forum