Сегодня идет свободное скачивание без начисления Download

Не хочу быть мужчиной / Ich möchte kein Mann sein (1918) DVDRip

Ответить на тему
 
Автор
Сообщение

UndegraundMen ®

Стаж: 3 года 9 месяцев

Сообщений: 28329

Торрент-статистика

Пост 22-Окт-2013 23:36

[Цитировать]

Не хочу быть мужчиной / Ich möchte kein Mann sein (1918) DVDRip- Год выпуска: 1918
Жанр: Комедия
Описание фильма:
По сюжету фильма молодая девушка, жительница Восточной Германии, живет у богатого дяди в Берлине на полную катушку: она играет в покер, курит, флиртует с молодыми мужчинами. Её гувернантка может только беспомощно смотреть на все это. Но когда дядя уезжает в длинную деловую поездку, гувернантка принимает на себя обязанности строгого домашнего учителя и воспитателя, который должен следить за девушкой. Но все же, девушка уклоняется от надсмотрщика. Она покупает себе фрак и попадает уже как мужчина в Берлинскую ночную жизнь…
Режиссер: Эрнст Любич / Ernst Lubitsch
Актеры: Осси Освальда, Курт Гётц, Ферри Сикла, Маргарет Купфер, Виктор Янсон
Продолжительность: 00:45:08
Качество видео: DVDRip
Перевод: Немой

Видеокодек: Xvid
Видео: ~2097 Кбит/сек, 576х432 (4:3), 29,970 кадров/сек
Аудио: MP3, 2 канала, 56,2 Кбит/сек, VBR, 48,0 КГц

MediaInfo 0.7.64:

Общее
Полное имя : D:\movies\I.Don't.Want.To.Be.A.Man.1918.Ernst.Lubitsch\I.Don't.Want.To.Be.A.Man.1918.Ernst.Lubitsch.avi
Формат : AVI
Формат/Информация : Audio Video Interleave
Размер файла : 699 Мбайт
Продолжительность : 45 м.
Режим общего битрейта : Переменный
Общий поток : 2167 Кбит/сек
Программа кодирования : VirtualDubMod 1.5.4.1 (build 2178/release)
Библиотека кодирования : VirtualDubMod build 2178/release
Видео
Идентификатор : 0
Формат : MPEG-4 Visual
Профиль формата : Advanced [email protected]
Параметр BVOP формата : 1
Параметр QPel формата : Нет
Параметр GMC формата : Без точки перехода
Параметр матрицы формата : Default (H.263)
Режим смешивания : Сжатый битовый поток
Идентификатор кодека : XVID
Идентификатор кодека/Подсказка : XviD
Продолжительность : 45 м.
Битрейт : 2097 Кбит/сек
Ширина : 576 пикселей
Высота : 432 пикселя
Соотношение сторон : 4:3
Частота кадров : 29,970 кадров/сек
Цветовое пространство : YUV
Субдискретизация насыщенности : 4:2:0
Битовая глубина : 8 бит
Тип развёртки : Прогрессивная
Метод сжатия : С потерями
Бит/(Пиксели*Кадры) : 0.281
Размер потока : 677 Мбайт (97%)
Библиотека кодирования : XviD 1.2.0SMP (UTC 2006-01-08)
Аудио
Идентификатор : 1
Формат : MPEG Audio
Версия формата : Version 1
Профиль формата : Layer 3
Идентификатор кодека : 55
Идентификатор кодека/Подсказка : MP3
Продолжительность : 44 м.
Вид битрейта : Переменный
Битрейт : 56,2 Кбит/сек
Номинальный битрейт : 64,0 Кбит/сек
Каналы : 1 канал
Частота : 48,0 КГц
Метод сжатия : С потерями
Размер потока : 18,1 Мбайт (3%)
Выравнивание : Соединение по промежуткам
Продолжительность промежутка : 24 мс. (0,72 видеокадр)
Время предзагрузки промежутка : 327 мс.
Библиотека кодирования : LAME3.97b
Настройки программы : -m m -V 4 -q 2 -lowpass 16.5 --abr 64
Язык : English
Скриншоты:
               
Время раздачи: 24/7
Вне форума [Профиль] [ЛС]
Показать сообщения:    
Ответить на тему

Текущее время: Сегодня 16:39

Часовой пояс: GMT + 3



Вы не можете начинать темы
Вы не можете отвечать на сообщения
Вы не можете редактировать свои сообщения
Вы не можете удалять свои сообщения
Вы не можете голосовать в опросах
Вы не можете прикреплять файлы к сообщениям
Вы не можете скачивать файлы