Сегодня идет свободное скачивание без начисления Download

Кукла / Die Puppe (1919) DVDRip

Ответить на тему
 
Автор
Сообщение

UndegraundMen ®

Стаж: 3 года 9 месяцев

Сообщений: 28329

Торрент-статистика

Пост 22-Окт-2013 23:36

[Цитировать]

Кукла / Die Puppe (1919) DVDRip- Год выпуска: 1919
Жанр: Комедия
Описание фильма:
Старый барон хочет женить Ланселота - племянника и единственного наследника. Молодой человек, напуганный количеством и агрессивностью претенденток, укрывается в монастыре. Монахи, прознавшие про богатое преданное, которое сулит барон в случае женитьбы Ланселота, придумывают хитроумный план, как холостяку остаться холостяком и при этом заполучить дядюшкин куш.
Режиссер: Эрнст Любич / Ernst Lubitsch
Актеры: Осси Освальда, Макс Кронерт, Херманн Цимиг, Виктор Янсон, Искадновский, Марга Кёхлер, Герард Риттербанд, Якоб Тидтке, Йозефина Дора
Продолжительность: 01:04:01
Качество видео: DVDRip
Перевод: Немой
Язык субтитров: Русские
Вид субтитров: Вшитые

Видеокодек: Xvid
Видео: ~1913 Кбит/сек, 640х480 (4х3), 25,000 кадров/сек
Аудиокодек: MP3
Аудио: 113 Кбит/сек, VBR, 2 канала, 48,0 КГц

MediaInfo 0.7.64

Общее
Полное имя : C:\Users\ivan\Desktop\Die Puppe\Die Puppe.avi
Формат : AVI
Формат/Информация : Audio Video Interleave
Размер файла : 933 Мбайт
Продолжительность : 1 ч. 4 м.
Режим общего битрейта : Переменный
Общий поток : 2038 Кбит/сек
Программа кодирования : VirtualDubMod 1.5.10.2 (build 2540/release)
Библиотека кодирования : VirtualDub build 32842/release
Видео
Идентификатор : 0
Формат : MPEG-4 Visual
Профиль формата : Advanced [email protected]
Параметр BVOP формата : 2
Параметр QPel формата : Нет
Параметр GMC формата : Без точки перехода
Параметр матрицы формата : Default (H.263)
Режим смешивания : Сжатый битовый поток
Идентификатор кодека : XVID
Идентификатор кодека/Подсказка : XviD
Продолжительность : 1 ч. 4 м.
Битрейт : 1913 Кбит/сек
Ширина : 640 пикселей
Высота : 480 пикселей
Соотношение сторон : 4:3
Частота кадров : 25,000 кадров/сек
Цветовое пространство : YUV
Субдискретизация насыщенности : 4:2:0
Битовая глубина : 8 бит
Тип развёртки : Прогрессивная
Метод сжатия : С потерями
Бит/(Пиксели*Кадры) : 0.249
Размер потока : 876 Мбайт (94%)
Библиотека кодирования : XviD 64
Аудио
Идентификатор : 1
Формат : MPEG Audio
Версия формата : Version 1
Профиль формата : Layer 3
Режим : Joint stereo
Идентификатор кодека : 55
Идентификатор кодека/Подсказка : MP3
Продолжительность : 1 ч. 4 м.
Вид битрейта : Переменный
Битрейт : 113 Кбит/сек
Номинальный битрейт : 128 Кбит/сек
Каналы : 2 канала
Частота : 48,0 КГц
Метод сжатия : С потерями
Размер потока : 51,6 Мбайт (6%)
Выравнивание : Соединение по промежуткам
Продолжительность промежутка : 24 мс. (0,60 видеокадр)
Время предзагрузки промежутка : 586 мс.
Библиотека кодирования : LAME3.90.
Настройки программы : -m j -V 4 -q 2 -lowpass 17.6 --abr 128
Скриншоты:
       
Время раздачи: 24/7
Вне форума [Профиль] [ЛС]
Показать сообщения:    
Ответить на тему

Текущее время: Сегодня 17:39

Часовой пояс: GMT + 3



Вы не можете начинать темы
Вы не можете отвечать на сообщения
Вы не можете редактировать свои сообщения
Вы не можете удалять свои сообщения
Вы не можете голосовать в опросах
Вы не можете прикреплять файлы к сообщениям
Вы не можете скачивать файлы