Сегодня идет свободное скачивание без начисления Download

Жестяной барабан / Die Blechtrommel (1979) BDRip [1080p]

Ответить на тему
 
Автор
Сообщение

UndegraundMen ®

Стаж: 3 года 9 месяцев

Сообщений: 28329

Торрент-статистика

Пост 22-Окт-2013 23:37

[Цитировать]

Жестяной барабан / Die Blechtrommel (1979) BDRip
«Academy Award Winner Best Foreign Language Film 1979»
-- Год выпуска: 1979
Страна: Германия (ФРГ), Франция, Югославия, Польша
Жанр: Военный, Драма-Описание фильма:
Древний Данциг — Гданьск. Годы зарождения фашизма. Главный герой — мудрый мальчик, разочаровавшийся в мире взрослых и решивший больше не расти.-Режиссер: Фолькер Шлёндорф
Актеры: Марио Адорф, Ангела Винклер, Давид Беннент, Катарина Тальбах, Даниэль Ольбрыхский, Тина Энгель, Берта Древс, Роланд Тойбнер, Тадеуш Куниковский, Андреа Ферреоль, Шарль Азнавур ...
[Адольф Гитлер - ... играет самого себя, озвучка, хроника, в титрах не указан]
Продолжительность: 02:43:31
Качество видео: BDRip 1080p
Перевод: Многоголосый закадровый (Кармен-Видео)
Язык субтитров: русский (форсированные, полные), английский
Вид субтитров: вшитые
 
Код:
[size=16]18+[/size]
Дата мировой премьеры: 3 мая 1979
Видеокодек: MPEG-4 AVC/H.264
Битрейт видео: ~9722 Kbps
Размер кадра: 1792*1080
Аудиокодек: AC3 2.0
Битрейт аудио: 256 Kbps
Код:
[color=blue]Только русская звуковая дорожка[/color]

MediaInfo:

Код:
General
Unique ID                                : 198804727184638640348330019735633475448 (0x959065D0C912F18C874CBC19513D3778)
Complete name                            : :\\Жестяной барабан _ Die Blechtrommel (1979)JP.BDRip.1080p.mkv
Format                                   : Matroska
Format version                           : Version 2
File size                                : 11.4 GiB
Duration                                 : 2h 43mn
Overall bit rate                         : 9 999 Kbps
Movie name                               : Die Blechtrommel (1979).BDRip.1080p
Encoded date                             : UTC 2013-10-20 16:00:26
Writing application                      : mkvmerge v5.8.0 ('No Sleep / Pillow') built on Sep  2 2012 15:37:04
Writing library                          : libebml v1.2.3 + libmatroska v1.3.0
Video
ID                                       : 1
Format                                   : AVC
Format/Info                              : Advanced Video Codec
Format profile                           : [url=mailto:[email protected]][email protected][/url]
Format settings, CABAC                   : Yes
Format settings, ReFrames                : 7 frames
Muxing mode                              : Header stripping
Codec ID                                 : V_MPEG4/ISO/AVC
Duration                                 : 2h 43mn
Bit rate                                 : 9 722 Kbps
Width                                    : 1 792 pixels
Height                                   : 1 080 pixels
Display aspect ratio                     : 1.659
Frame rate mode                          : Constant
Frame rate                               : 23.976 fps
Color space                              : YUV
Chroma subsampling                       : 4:2:0
Bit depth                                : 8 bits
Scan type                                : Progressive
Bits/(Pixel*Frame)                       : 0.210
Stream size                              : 10.9 GiB (95%)
Title                                    : Жестяной барабан _ Die Blechtrommel (1979)JP.BDRip.1080p.mkv
Writing library                          : x264 core 125 r2208 d9d2288
Encoding settings                        : cabac=1 / ref=7 / deblock=1:-3:-3 / analyse=0x3:0x113 / me=umh / subme=9 / psy=0 / mixed_ref=1 / me_range=32 / chroma_me=0 / trellis=1 / 8x8dct=1 / cqm=0 / deadzone=21,11 / fast_pskip=0 / chroma_qp_offset=0 / threads=2 / lookahead_threads=2 / sliced_threads=0 / slices=1 / nr=0 / decimate=1 / interlaced=0 / bluray_compat=0 / constrained_intra=0 / bframes=7 / b_pyramid=2 / b_adapt=2 / b_bias=0 / direct=1 / weightb=1 / open_gop=1 / weightp=2 / keyint=300 / keyint_min=25 / scenecut=40 / intra_refresh=0 / rc_lookahead=60 / rc=2pass / mbtree=1 / bitrate=9722 / ratetol=1.0 / qcomp=0.60 / qpmin=0 / qpmax=69 / qpstep=8 / cplxblur=20.0 / qblur=0.5 / vbv_maxrate=55000 / vbv_bufsize=62500 / nal_hrd=none / ip_ratio=1.40 / aq=1:0.00
Default                                  : Yes
Forced                                   : No
Audio
ID                                       : 2
Format                                   : AC-3
Format/Info                              : Audio Coding 3
Mode extension                           : CM (complete main)
Format settings, Endianness              : Big
Muxing mode                              : Header stripping
Codec ID                                 : A_AC3
Duration                                 : 2h 43mn
Bit rate mode                            : Constant
Bit rate                                 : 256 Kbps
Channel(s)                               : 2 channels
Channel positions                        : Front: L R
Sampling rate                            : 48.0 KHz
Bit depth                                : 16 bits
Compression mode                         : Lossy
Stream size                              : 299 MiB (3%)
Title                                    : AC3 2.0 | 256 kbps | MVO (Кармен-Видео)
Language                                 : Russian
Default                                  : Yes
Forced                                   : No
Text #1
ID                                       : 3
Format                                   : PGS
Muxing mode                              : zlib
Codec ID                                 : S_HDMV/PGS
Codec ID/Info                            : The same subtitle format used on BDs/HD-DVDs
Title                                    : Forced
Language                                 : Russian
Default                                  : Yes
Forced                                   : No
Text #2
ID                                       : 4
Format                                   : PGS
Muxing mode                              : zlib
Codec ID                                 : S_HDMV/PGS
Codec ID/Info                            : The same subtitle format used on BDs/HD-DVDs
Title                                    : Full
Language                                 : Russian
Default                                  : No
Forced                                   : No
Text #3
ID                                       : 5
Format                                   : PGS
Muxing mode                              : zlib
Codec ID                                 : S_HDMV/PGS
Codec ID/Info                            : The same subtitle format used on BDs/HD-DVDs
Title                                    : Full
Language                                 : English
Default                                  : No
Forced                                   : No
Menu
00:00:00.000                             : :01
00:07:56.100                             : :02
00:11:04.622                             : :03
00:13:35.064                             : :04
00:21:57.232                             : :05
00:25:21.561                             : :06
00:27:21.222                             : :07
00:31:47.113                             : :08
00:35:49.814                             : :09
00:37:57.024                             : :10
00:48:52.638                             : :11
00:55:13.685                             : :12
01:04:34.579                             : :13
01:12:52.785                             : :14
01:17:05.787                             : :15
01:21:55.660                             : :16
01:28:35.310                             : :17
01:31:05.251                             : :18
01:41:47.309                             : :19
01:43:49.389                             : :20
01:50:52.145                             : :21
01:58:48.162                             : :22
02:02:55.409                             : :23
02:06:44.638                             : :24
02:09:06.739                             : :25
02:13:01.765                             : :26
02:18:41.646                             : :27
02:21:51.586                             : :28
02:26:07.550                             : :29
02:29:44.558                             : :30
02:34:52.992                             : :31
Скриншоты:              Время раздачи: 24/7 до 3-х скачавших
Вне форума [Профиль] [ЛС]
Показать сообщения:    
Ответить на тему

Текущее время: Сегодня 17:37

Часовой пояс: GMT + 3



Вы не можете начинать темы
Вы не можете отвечать на сообщения
Вы не можете редактировать свои сообщения
Вы не можете удалять свои сообщения
Вы не можете голосовать в опросах
Вы не можете прикреплять файлы к сообщениям
Вы не можете скачивать файлы