Сегодня идет свободное скачивание без начисления Download

Великий Гэтсби / The Great Gatsby (1974) BDRip [720p]

Ответить на тему
 
Автор
Сообщение

UndegraundMen ®

Стаж: 4 года 5 месяцев

Сообщений: 26499

Торрент-статистика

Пост 23-Окт-2013 11:04

[Цитировать]

Великий Гэтсби / The Great Gatsby (1974) BDRip [720p]- Год выпуска: 1974
Производство: США - Paramount Pictures, Newdon Productions
Жанр: Драма, Мелодрама
Перевод: Двуголосый закадровый, профессиональный
Субтитры: Вшитые отключаемые
Язык субтитров: Русский, Английский
Дата мировой премьеры: 27 марта 1974
Режиссер: Джек Клейтон
Продюсер: Дэвид Меррик, Хэнк Мунджин
Актеры: Роберт Редфорд, Миа Фэрроу, Брюс Дерн, Карен Блэк, Скотт Уилсон, Сэм Уотерстон, Лоис Чайлз, Ховард Да Сильва, Робертс Блоссом, Эдвард Херрманн
Описание фильма:
Когда-то Джей Гетсби был влюблен в очаровательную молодую леди по имени Дэйзи , которая предпочла ему состоятельного господина- Тома Бьюкенэн . И вот, восемь лет спустя, Гетсби, разбогатевший таинственным образом, снова появляется на Лонг-Айленде, нарушив размеренную жизнь светского общества острова, чтобы вновь завоевать любовь дамы своего сердца.
«Gone is the romance that was so divine»

Продолжительность: 02:23:25
Качество видео: BDRip [720p]
Видеокодек: х264
Битрейт видео: 10,5 Мбит/сек
Размер кадра: 1280х720, NTSC 23.976
Аудио #1: Русский , AC3, 2ch (L, R), 192 кбит/с
Аудио #2: Английский AC3, 6ch (L, C, R, Ls, Rs +LFE), 448 кбит/с

МедиаИнфо

Видео
Идентификатор : 1
Формат : AVC
Формат/Информация : Advanced Video Codec
Профиль формата : [url=mailto:[email protected]][email protected][/url]
Параметр CABAC формата : Да
Параметр ReFrames формата : 9 кадров
Идентификатор кодека : V_MPEG4/ISO/AVC
Продолжительность : 2 ч. 23 м.
Битрейт : 10,5 Мбит/сек
Ширина : 1280 пикселей
Высота : 720 пикселей
Соотношение сторон : 16:9
Режим частоты кадров : Постоянный
Частота кадров : 23,976 кадра/сек
Цветовое пространство : YUV
Субдискретизация насыщенности : 4:2:0
Битовая глубина : 8 бит
Тип развёртки : Прогрессивная
Бит/(Пиксели*Кадры) : 0.475
Размер потока : 10,3 Гбайт (92%)
Заголовок : The.Great.Gatsby.1974.720p.BDRip.ac3.ru.en.0day.Galar
Библиотека кодирования : x264 core 130 r2273 b3065e6
Настройки программы : cabac=1 / ref=9 / deblock=1:-3:-3 / analyse=0x3:0x113 / me=umh / subme=11 / psy=1 / psy_rd=1.00:0.00 / mixed_ref=1 / me_range=16 / chroma_me=1 / trellis=2 / 8x8dct=1 / cqm=0 / deadzone=21,11 / fast_pskip=0 / chroma_qp_offset=-2 / threads=6 / lookahead_threads=1 / sliced_threads=0 / nr=0 / decimate=0 / interlaced=0 / bluray_compat=0 / constrained_intra=0 / bframes=7 / b_pyramid=2 / b_adapt=2 / b_bias=0 / direct=3 / weightb=1 / open_gop=0 / weightp=2 / keyint=250 / keyint_min=23 / scenecut=40 / intra_refresh=0 / rc=2pass / mbtree=0 / bitrate=10500 / ratetol=1.0 / qcomp=0.60 / qpmin=0 / qpmax=69 / qpstep=4 / cplxblur=20.0 / qblur=0.5 / ip_ratio=1.40 / pb_ratio=1.30 / aq=2:1.00
Язык : English
Default : Да
Forced : Нет
Аудио #1
Идентификатор : 2
Формат : AC-3
Формат/Информация : Audio Coding 3
Расширение режима : CM (complete main)
Параметр Endianness формата : Big
Идентификатор кодека : A_AC3
Продолжительность : 2 ч. 23 м.
Вид битрейта : Постоянный
Битрейт : 192 Кбит/сек
Каналы : 2 канала
Расположение каналов : Front: L R
Частота : 48,0 КГц
Битовая глубина : 16 бит
Метод сжатия : С потерями
Размер потока : 197 Мбайт (2%)
Заголовок : Russian.AC3. 2 ch.192 kbps (двухголосый)
Язык : Russian
Default : Да
Forced : Нет
Аудио #2
Идентификатор : 3
Формат : AC-3
Формат/Информация : Audio Coding 3
Расширение режима : CM (complete main)
Параметр Endianness формата : Big
Идентификатор кодека : A_AC3
Продолжительность : 2 ч. 23 м.
Вид битрейта : Постоянный
Битрейт : 448 Кбит/сек
Каналы : 6 каналов
Расположение каналов : Front: L C R, Side: L R, LFE
Частота : 48,0 КГц
Битовая глубина : 16 бит
Метод сжатия : С потерями
Размер потока : 460 Мбайт (4%)
Заголовок : English. AC3. 6 ch.448 kbps (оригинал)
Язык : English
Default : Нет
Forced : Нет
Текст #1
Идентификатор : 4
Формат : UTF-8
Идентификатор кодека : S_TEXT/UTF8
Идентификатор кодека/Информация : UTF-8 Plain Text
Заголовок : Русский
Язык : Russian
Default : Да
Forced : Нет
Текст #2
Идентификатор : 5
Формат : UTF-8
Идентификатор кодека : S_TEXT/UTF8
Идентификатор кодека/Информация : UTF-8 Plain Text
Заголовок : Английский
Язык : English
Default : Нет
Forced : Нет

Лог Кодирования:

x264 [info]: frame I:1128 Avg QP:15.24 size:157723
x264 [info]: frame P:41877 Avg QP:17.49 size: 81807
x264 [info]: frame B:163323 Avg QP:19.45 size: 47084
x264 [info]: consecutive B-frames: 0.9% 1.7% 9.1% 12.3% 13.4% 57.3% 4.2% 1.2%
encoded 206328 frames, 2.86 fps, 10498.93 kb/s
Вне форума [Профиль] [ЛС]
Похожие темы
Форум Тема Автор Торрент Отв. Посл. сообщение
./templates/default/images/folder_dl.gif Подшивки журналов и газет Подборка журналов - Великие парусники №№1-119 [2010] [PDF]. Обновлено 19.08.2012 Omen
0 | 1

0 | 8409

4

2011-07-11 16:36
Omen Последнее
./templates/default/images/folder_dl.gif Фантастика, фэнтези, ужасы, мистика Георгий Смородинский | Тени Великого леса (2017) [MP3] [email protected]
1 | 0

0 | 1864

2

2017-07-07 20:41
[email protected] Последнее
Показать сообщения:    
Ответить на тему

Текущее время: Сегодня 21:42

Часовой пояс: GMT + 3



Вы не можете начинать темы
Вы не можете отвечать на сообщения
Вы не можете редактировать свои сообщения
Вы не можете удалять свои сообщения
Вы не можете голосовать в опросах
Вы не можете прикреплять файлы к сообщениям
Вы не можете скачивать файлы