Сегодня идет свободное скачивание без начисления Download

Разиня / Le corniaud (Жерар Ури) [1965, комедия, криминал, HDRip] DUB + MVO

Ответить на тему
 
Автор
Сообщение

O.S.A. ®

Пол:

Стаж: 3 года 1 месяц

Сообщений: 4520

Откуда: СССР

Торрент-статистика

Пост 25-Окт-2013 15:10

[Цитировать]

--Разиня / Le corniaud-- Год выпуска: 1965
Страна: Франция, Италия
Жанр: комедия, криминал
Продолжительность: 01:50:29
Перевод: Профессиональный (дублированный) [Советский дубляж] + Профессиональный (многоголосый)-Режиссер: Жерар Ури-В ролях: Бурвиль, Луи де Фюнес, Венантино Венантини, Анри Женес, Ландо Будзанка, Жак Эйзер, Анри Вирложё, Жан Мейер, Джек Ари...-Описание: Антуан Марешаль, в качестве компенсации за разбитую машину, получает от богатого промышленика Леопольда Сарояна роскошный кабриолет, оборудованный телефоном и стереосистемой. Вне себя от счастья, он продолжает свое путешествие в Италию.
Однако бесплатный сыр бывает только в мышеловке. Марешаль не подозревает, что его используют гангстеры во главе с Сарояном. Дареный автомобиль напичкан золотом и наркотиками, а на хвосте у Марешаля теперь сидят две соперничающие банды контрабандистов…-- --Качество видео: HDRip
Формат видео: AVI
Видео кодек: XviD
Аудио кодек: AC3
Видео: 720x304 (2.37:1), 24.000 fps, XviD build 73, ~1501 kbps avg, 0.286 bit/pixel
Аудио #1: [RUS] 48.0 kHz, AC3 Dolby Digital, 2/0 (L,R) ch, ~192.00 kbps avg || DUB
Аудио #2: [RUS] 48.0 kHz, AC3 Dolby Digital, 2/0 (L,R) ch, ~192.00 kbps avg || MVO
Cубтитры: нет--

Media Info

D:Мои рипыLe.Corniaud.1965.HDRip.dexter_lex.avi
General
Complete name : D:Мои рипыLe.Corniaud.1965.HDRip.dexter_lex.avi
Format : AVI
Format/Info : Audio Video Interleave
File size : 1.47 GiB
Duration : 1h 50mn
Overall bit rate : 1 899 Kbps
Writing application : VirtualDubMod 1.5.10.3 | www.virtualdub-fr.org || (build 2550/release)
Writing library : VirtualDubMod build 2550/release
Video #0
ID : 0
Format : MPEG-4 Visual
Format profile : Advanced [email protected]
Format settings, BVOP : 1
Format settings, QPel : No
Format settings, GMC : No warppoints
Format settings, Matrix : Custom
Codec ID : XVID
Codec ID/Hint : XviD
Duration : 1h 50mn
Bit rate : 1 501 Kbps
Width : 720 pixels
Height : 304 pixels
Display aspect ratio : 2.35:1
Frame rate : 24.000 fps
Color space : YUV
Chroma subsampling : 4:2:0
Bit depth : 8 bits
Scan type : Progressive
Compression mode : Lossy
Bits/(Pixel*Frame) : 0.286
Stream size : 1.16 GiB (79%)
Writing library : XviD 73
Audio #1
ID : 1
Format : AC-3
Format/Info : Audio Coding 3
Mode extension : CM (complete main)
Codec ID : 2000
Duration : 1h 50mn
Bit rate mode : Constant
Bit rate : 192 Kbps
Channel(s) : 2 channels
Channel positions : Front: L R
Sampling rate : 48.0 KHz
Bit depth : 16 bits
Compression mode : Lossy
Stream size : 152 MiB (10%)
Alignment : Split accross interleaves
Interleave, duration : 42 ms (1.00 video frame)
Interleave, preload duration : 500 ms
Audio #2
ID : 2
Format : AC-3
Format/Info : Audio Coding 3
Mode extension : CM (complete main)
Codec ID : 2000
Duration : 1h 50mn
Bit rate mode : Constant
Bit rate : 192 Kbps
Channel(s) : 2 channels
Channel positions : Front: L R
Sampling rate : 48.0 KHz
Bit depth : 16 bits
Compression mode : Lossy
Stream size : 152 MiB (10%)
Alignment : Split accross interleaves
Interleave, duration : 42 ms (1.00 video frame)
Interleave, preload duration : 500 ms

Скриншоты

     
-- --

_________________

===============================
IGNOSCITO SAEPE ALTERI, NUNQUAM TIBI
Вне форума [Профиль] [ЛС]
Показать сообщения:    
Ответить на тему

Текущее время: Сегодня 20:24

Часовой пояс: GMT + 3



Вы не можете начинать темы
Вы не можете отвечать на сообщения
Вы не можете редактировать свои сообщения
Вы не можете удалять свои сообщения
Вы не можете голосовать в опросах
Вы не можете прикреплять файлы к сообщениям
Вы не можете скачивать файлы