Сегодня идет свободное скачивание без начисления Download

Французский связной 2 / The French Connection II (1975) BDRip [H.264/720p-LQ] [Hi10P]

Ответить на тему
 
Автор
Сообщение

UndegraundMen ®

Стаж: 3 года 9 месяцев

Сообщений: 28329

Торрент-статистика

Пост 26-Окт-2013 20:51

[Цитировать]

Французский связной 2 / The French Connection II (1975) BDRip [H.264/720p-LQ] [Hi10P] - Год выпуска: 1975
Жанр: Боевик, Триллер, Криминал, Драма
Описание фильма: Вторая серия известной криминальной драмы о нью-йоркском полицейском Попае-Дойле. Бравый служитель закона продолжает свою яростную и кровавую борьбу против торговцев наркотиками.
На этот раз ареной напряженного действия является Марсель, где наш герой попадает в запутанную сеть наркобизнеса, упрямо идя по следу гангстеров. По мере сил ему пытаются помогать французские полицейские.
Режиссер: Джон Франкенхаймер
Актеры: Джин Хэкмен, Фернандо Рей, Бернар Фрессон, Жан-Пьер Кастальди, Шарль Мийо, Кэтлин Несбит, Пьер Колле, Александр Фабр, Филипп Леотар, Жак Динам
Качество: BDRip
Продолжительность: 01:59:18
Перевод: Профессиональный (многоголосый, закадровый), Авторский (одноголосый, закадровый)
Оригинальная аудио дорожка: Английская + Коментарии
Язык убтитров: Русские, Английские
Вид субтитров: Вшитые

[url=/forum/viewtopic.php?p=6039606#6039606]Французский связной / The French Connection (1971)[/url]
Формат: MKV
Видео: MPEG-4 AVC/H.264, 1280x696(1,85:1), 23.976fps, 1697 Кbps, 0.081bit/pixel
Аудио 1: MVO Russian, AC3, 6ch, 48 kHz, 448 kbps, (Многоголосый)
Аудио 2: AVO Russian, AC3, 6ch, 48 kHz, 448 kbps, (Михалёв) - Отдельным файлом
Аудио 3: DVO Ukraine, AC3, 6ch, 48 kHz, 448 kbps, (Украинский) - Отдельным файлом
Аудио 4: English, AC3, 6ch, 48 kHz, 448 kbps, (Оригинал) - Отдельным файлом
Аудио 5: English, AC3, 2ch, 48 kHz, 224 kbps, (Commentary with Director William Friedkin) - Отдельным файлом
Аудио 6: English, AC3, 2ch, 48 kHz, 224 kbps, (Commentary with Gene Hackman) - Отдельным файлом
Язык субтитров: Russian, English, English Commentary

MediaInfo

Общее
Формат : Matroska
Версия формата : Version 4 / Version 2
Размер файла : 3,29 Гбайт
Продолжительность : 1 ч. 59 м.
Общий поток : 3953 Кбит/сек
Название фильма : Французский связной 2 / The French Connection II (1975) BDRip-AVC (Sinteros)
Программа кодирования : mkvmerge v6.5.0 ('Isn't she lovely') built on Oct 20 2013 12:50:05
Библиотека кодирования : libebml v1.3.0 + libmatroska v1.4.1
Attachment : Yes
Видео
Идентификатор : 1
Формат : AVC
Формат/Информация : Advanced Video Codec
Профиль формата : High [url=mailto:[email protected]][email protected][/url]
Параметр CABAC формата : Да
Параметр ReFrames формата : 16 кадров
Идентификатор кодека : V_MPEG4/ISO/AVC
Продолжительность : 1 ч. 59 м.
Битрейт : 1698 Кбит/сек
Ширина : 1280 пикселей
Высота : 696 пикселей
Соотношение сторон : 1,85:1
Режим частоты кадров : Постоянный
Частота кадров : 23,976 кадра/сек
Цветовое пространство : YUV
Субдискретизация насыщенности : 4:2:0
Битовая глубина : 10 бит
Тип развёртки : Прогрессивная
Бит/(Пиксели*Кадры) : 0.079
Размер потока : 1,41 Гбайт (43%)
Заголовок : MPEG-4 AVC/H.264, 1280x696(1,85:1), 23.976fps, 1697 Кbps, 0.081bit/pixel
Библиотека кодирования : x264 core 133 r2334 a3ac64b
Настройки программы : cabac=1 / ref=16 / deblock=1:-1:-1 / analyse=0x3:0x133 / me=tesa / subme=10 / psy=1 / psy_rd=1.00:0.00 / mixed_ref=1 / me_range=32 / chroma_me=1 / trellis=2 / 8x8dct=1 / cqm=0 / deadzone=21,11 / fast_pskip=0 / chroma_qp_offset=-2 / threads=12 / lookahead_threads=1 / sliced_threads=0 / nr=0 / decimate=1 / interlaced=0 / bluray_compat=0 / constrained_intra=0 / bframes=4 / b_pyramid=2 / b_adapt=2 / b_bias=0 / direct=1 / weightb=1 / open_gop=0 / weightp=2 / keyint=250 / keyint_min=23 / scenecut=40 / intra_refresh=0 / rc_lookahead=60 / rc=crf / mbtree=1 / crf=21.0 / qcomp=0.60 / qpmin=0 / qpmax=81 / qpstep=4 / ip_ratio=1.40 / aq=1:1.00
Язык : English
Default : Да
Forced : Нет
Аудио #1
Идентификатор : 2
Формат : AC-3
Формат/Информация : Audio Coding 3
Расширение режима : CM (complete main)
Параметр Endianness формата : Big
Идентификатор кодека : A_AC3
Продолжительность : 1 ч. 59 м.
Вид битрейта : Постоянный
Битрейт : 448 Кбит/сек
Каналы : 6 каналов
Расположение каналов : Front: L C R, Side: L R, LFE
Частота : 48,0 КГц
Битовая глубина : 16 бит
Метод сжатия : С потерями
Размер потока : 382 Мбайт (11%)
Заголовок : MVO Russian, AC3, 6ch, 48 kHz, 448 kbps, (Многоголосый)
Язык : Russian
Default : Да
Forced : Нет
Аудио #2 - Отдельным файлом
Идентификатор : 3
Формат : AC-3
Формат/Информация : Audio Coding 3
Расширение режима : CM (complete main)
Параметр Endianness формата : Big
Идентификатор кодека : A_AC3
Продолжительность : 1 ч. 59 м.
Вид битрейта : Постоянный
Битрейт : 448 Кбит/сек
Каналы : 6 каналов
Расположение каналов : Front: L C R, Side: L R, LFE
Частота : 48,0 КГц
Битовая глубина : 16 бит
Метод сжатия : С потерями
Размер потока : 382 Мбайт (11%)
Заголовок : AVO Russian, AC3, 6ch, 48 kHz, 448 kbps, (Михалёв)
Язык : Russian
Default : Нет
Forced : Нет
Аудио #3 - Отдельным файлом
Идентификатор : 4
Формат : AC-3
Формат/Информация : Audio Coding 3
Расширение режима : CM (complete main)
Параметр Endianness формата : Big
Идентификатор кодека : A_AC3
Продолжительность : 1 ч. 59 м.
Вид битрейта : Постоянный
Битрейт : 384 Кбит/сек
Каналы : 6 каналов
Расположение каналов : Front: L C R, Side: L R, LFE
Частота : 48,0 КГц
Битовая глубина : 16 бит
Метод сжатия : С потерями
Размер потока : 328 Мбайт (10%)
Заголовок : DVO Ukraine, AC3, 6ch, 48 kHz, 384 kbps, (Украинский)
Язык : Ukrainian
Default : Нет
Forced : Нет
Аудио #4 - Отдельным файлом
Идентификатор : 5
Формат : AC-3
Формат/Информация : Audio Coding 3
Расширение режима : CM (complete main)
Параметр Endianness формата : Big
Идентификатор кодека : A_AC3
Продолжительность : 1 ч. 59 м.
Вид битрейта : Постоянный
Битрейт : 448 Кбит/сек
Каналы : 6 каналов
Расположение каналов : Front: L C R, Side: L R, LFE
Частота : 48,0 КГц
Битовая глубина : 16 бит
Метод сжатия : С потерями
Размер потока : 382 Мбайт (11%)
Заголовок : English, AC3, 6ch, 48 kHz, 448 kbps, (Оригинал)
Язык : English
Default : Нет
Forced : Нет
Аудио #5 - Отдельным файлом
Идентификатор : 6
Формат : AC-3
Формат/Информация : Audio Coding 3
Расширение режима : CM (complete main)
Параметр Endianness формата : Big
Идентификатор кодека : A_AC3
Продолжительность : 1 ч. 59 м.
Вид битрейта : Постоянный
Битрейт : 224 Кбит/сек
Каналы : 2 канала
Расположение каналов : Front: L R
Частота : 48,0 КГц
Битовая глубина : 16 бит
Метод сжатия : С потерями
Размер потока : 191 Мбайт (6%)
Заголовок : English, AC3, 2ch, 48 kHz, 224 kbps, (Commentary with Director William Friedkin)
Язык : English
Default : Нет
Forced : Нет
Аудио #6 - Отдельным файлом
Идентификатор : 7
Формат : AC-3
Формат/Информация : Audio Coding 3
Расширение режима : CM (complete main)
Параметр Endianness формата : Big
Идентификатор кодека : A_AC3
Продолжительность : 1 ч. 59 м.
Вид битрейта : Постоянный
Битрейт : 224 Кбит/сек
Каналы : 2 канала
Расположение каналов : Front: L R
Частота : 48,0 КГц
Битовая глубина : 16 бит
Метод сжатия : С потерями
Размер потока : 191 Мбайт (6%)
Заголовок : English, AC3, 2ch, 48 kHz, 224 kbps, (Commentary with Gene Hackman)
Язык : English
Default : Нет
Forced : Нет
Текст #1
Идентификатор : 8
Формат : UTF-8
Идентификатор кодека : S_TEXT/UTF8
Идентификатор кодека/Информация : UTF-8 Plain Text
Язык : Russian
Default : Нет
Forced : Нет
Текст #2
Идентификатор : 9
Формат : UTF-8
Идентификатор кодека : S_TEXT/UTF8
Идентификатор кодека/Информация : UTF-8 Plain Text
Язык : English
Default : Нет
Forced : Нет
Текст #3
Идентификатор : 10
Формат : UTF-8
Идентификатор кодека : S_TEXT/UTF8
Идентификатор кодека/Информация : UTF-8 Plain Text
Заголовок : Commentary with Director John Frankenheimer
Язык : English
Default : Нет
Forced : Нет
Текст #4
Идентификатор : 11
Формат : UTF-8
Идентификатор кодека : S_TEXT/UTF8
Идентификатор кодека/Информация : UTF-8 Plain Text
Заголовок : Commentary with Producer Robert Rosen
Язык : English
Default : Нет
Forced : Нет
Меню
00:00:00.000 : en:Main Titles
00:01:02.562 : en:In the Cool of the Pool
00:03:34.797 : en:Class in Session
00:08:25.671 : en:A Yelp for Help
00:12:53.314 : en:Community Standards
00:14:03.425 : en:Who-Ville
00:20:03.994 : en:96 Daughters
00:22:53.705 : en:Family Tradition
00:25:16.014 : en:Keep it to Yourself
00:30:28.326 : en:Good News Only
00:34:47.168 : en:Cosmic Convergence
00:38:14.125 : en:Brainiest Brain
00:43:24.935 : en:The Perfect Place
00:45:58.547 : en:Horton the Brave
00:49:16.161 : en:Making Trouble
00:53:39.925 : en:Lighter Than a Feather
00:58:04.606 : en:Weird Feeling
01:03:55.414 : en:Being Alone
01:07:08.149 : en:Evil Plans
01:15:07.669 : en:Summer Show
01:18:14.356 : en:Code of Honor
01:20:15.685 : en:Vlad Attacks
01:24:40.909 : en:Warning Who-Ville
01:32:49.272 : en:The Clover Field
01:35:56.876 : en:Finding the Speck
01:38:46.295 : en:Under Attack
01:41:43.013 : en:Admit You're Wrong
01:44:36.561 : en:We Are Here!
01:48:54.110 : en:One More Voice
01:51:15.168 : en:Hearing the Whos
01:57:38.134 : en:No Matter How Small
01:58:06.662 : en:End Titles
01:59:17.150 : en:
Примечание: Рип в High 10 Profile, в настоящее время не поддерживается большинством аппаратных проигрывателей, поэтому предназначен исключительно для воспроизведения на ПК. Для корректного воспроизведения может потребоваться обновление ПО.
Скриншоты:
         
         
Вне форума [Профиль] [ЛС]
Похожие темы
Форум Тема Автор Торрент Отв. Посл. сообщение
./templates/default/images/folder_dl.gif Зарубежное кино Ягуар / Le jaguar (Франсис Вебер / Francis Veber) [1996, Франция, комедия, боевик, приключения, HDTV 1080i] MVO (Амальгама) + DVO (СТС) + MVO (СВ-Дубль) + Sub Rus, Eng + Original Fre Omen
1 | 0

0 | 142

2

2014-03-22 23:00
Omen Последнее
./templates/default/images/folder_dl.gif Зарубежное кино Приключения Паддингтона / Paddington (Пол Кинг / Paul King) [2014, Великобритания, Франция, комедия, приключения, семейный, BDRip 720p] Dub (BD RUS) + Sub Eng + Original Eng Omen
1 | 0

1 | 538

15

2015-04-26 09:04
Dracula Последнее
./templates/default/images/folder_dl.gif Зарубежное кино Лобстер / The Lobster (Йоргос Лантимос / Yorgos Lanthimos) [2015, Ирландия, Великобритания, Греция, Франция, Нидерланды, США, драма, фантастика, WEB-DL 720p] Sub Rus + Original Eng Omen
1 | 0

0 | 2228

11

2015-12-31 21:32
Omen Последнее
Показать сообщения:    
Ответить на тему

Текущее время: Сегодня 01:16

Часовой пояс: GMT + 3



Вы не можете начинать темы
Вы не можете отвечать на сообщения
Вы не можете редактировать свои сообщения
Вы не можете удалять свои сообщения
Вы не можете голосовать в опросах
Вы не можете прикреплять файлы к сообщениям
Вы не можете скачивать файлы