Сегодня идет свободное скачивание без начисления Download

Злоключения \

Ответить на тему
 
Автор
Сообщение

UndegraundMen ®

Стаж: 3 года 9 месяцев

Сообщений: 28329

Торрент-статистика

Пост 26-Окт-2013 20:51

[Цитировать]

Злоключения "китайца" в Китае / Les tribulations d'un Chinois en Chine (1965) BDRip- Год выпуска: 1965
Жанр: Комедия, Приключения
Описание фильма:
Изрядно заскучавшему от жизни молодому миллионеру никак не удается наложить на себя руки, и тогда его друг берется помочь горе-самоубийце, наняв для этого настоящих киллеров и предварительно сообщив, что жить тому остается ровно месяц.Но спустя некоторое время Артюр встречает в кабаке танцовщицу Александрин Пинардель и влюбляется в нее. И ему сразу очень захотелось жить…
Режиссер: Филипп де Брока
Актеры: Жан-Поль Бельмондо, Урсула Андресс, Мария Паком, Валери Лагранж, Валери Инкижинофф, Джо Саид, Марио Давид, Поль Пребуа, Джесс Хан, Жан Рошфор......
Продолжительность: 01:48:25
Качество видео: BDRip
Перевод: Многоголосый закадровый
Субтитры: Отключаемые, отдельным файлом английские, французские

Видеокодек: Xvid
Битрейт видео: ~1797 Кбит/сек
Размер кадра: 720x432
Аудиокодек: AC3 2.0
Битрейт аудио: 192 Кбит/сек
Aудио 1: AC3, 2 ch, 192 Кбит/сек - русский многоголосый
Aудио 2: AC3, 2 ch, 192 Кбит/сек - русский одноголосый
Aудио 3: AC3, 2 ch, 192 Кбит/сек - французский

MediaInfo:

Общее
Полное имя : W:\Интересно\Злоключения китайца в Китае\Злоключения китайца в Китае (1965) BDRip.avi
Формат : AVI
Формат/Информация : Audio Video Interleave
Размер файла : 1,81 Гбайт
Продолжительность : 1 ч. 48 м.
Общий поток : 2391 Кбит/сек
Режиссёр : gbakh
Программа кодирования : VirtualDubMod 1.5.10.2 (build 2540/release)
Видео
Идентификатор : 0
Формат : MPEG-4 Visual
Профиль формата : Advanced [email protected]
Параметр BVOP формата : 2
Параметр QPel формата : Нет
Параметр GMC формата : Без точки перехода
Параметр матрицы формата : Default (H.263)
Идентификатор кодека : XVID
Идентификатор кодека/Подсказка : XviD
Продолжительность : 1 ч. 48 м.
Битрейт : 1797 Кбит/сек
Ширина : 720 пикселей
Высота : 432 пикселя
Соотношение сторон : 1,667
Частота кадров : 24,000 кадра/сек
Цветовое пространство : YUV
Субдискретизация насыщенности : 4:2:0
Битовая глубина : 8 бит
Тип развёртки : Прогрессивная
Метод сжатия : С потерями
Бит/(Пиксели*Кадры) : 0.241
Размер потока : 1,36 Гбайт (75%)
Библиотека кодирования : XviD 1.2.1 (UTC 2008-12-04)
Аудио #1
Идентификатор : 1
Формат : AC-3
Формат/Информация : Audio Coding 3
Расширение режима : CM (complete main)
Параметр Endianness формата : Big
Идентификатор кодека : 2000
Продолжительность : 1 ч. 48 м.
Вид битрейта : Постоянный
Битрейт : 192 Кбит/сек
Каналы : 2 канала
Расположение каналов : Front: L R
Частота : 48,0 КГц
Битовая глубина : 16 бит
Метод сжатия : С потерями
Размер потока : 149 Мбайт (8%)
Выравнивание : Разделение по промежуткам
Продолжительность промежутка : 42 мс. (1,00 видеокадр)
Время предзагрузки промежутка : 500 мс.
Аудио #2
Идентификатор : 2
Формат : AC-3
Формат/Информация : Audio Coding 3
Расширение режима : CM (complete main)
Параметр Endianness формата : Big
Идентификатор кодека : 2000
Продолжительность : 1 ч. 48 м.
Вид битрейта : Постоянный
Битрейт : 192 Кбит/сек
Каналы : 2 канала
Расположение каналов : Front: L R
Частота : 48,0 КГц
Битовая глубина : 16 бит
Метод сжатия : С потерями
Размер потока : 149 Мбайт (8%)
Выравнивание : Разделение по промежуткам
Продолжительность промежутка : 42 мс. (1,00 видеокадр)
Время предзагрузки промежутка : 500 мс.
Аудио #3
Идентификатор : 3
Формат : AC-3
Формат/Информация : Audio Coding 3
Расширение режима : CM (complete main)
Параметр Endianness формата : Big
Идентификатор кодека : 2000
Продолжительность : 1 ч. 48 м.
Вид битрейта : Постоянный
Битрейт : 192 Кбит/сек
Каналы : 2 канала
Расположение каналов : Front: L R
Частота : 48,0 КГц
Битовая глубина : 16 бит
Метод сжатия : С потерями
Размер потока : 149 Мбайт (8%)
Выравнивание : Разделение по промежуткам
Продолжительность промежутка : 42 мс. (1,00 видеокадр)
Время предзагрузки промежутка : 500 мс.
Скриншоты:
         
         
Вне форума [Профиль] [ЛС]
Показать сообщения:    
Ответить на тему

Текущее время: Сегодня 13:27

Часовой пояс: GMT + 3



Вы не можете начинать темы
Вы не можете отвечать на сообщения
Вы не можете редактировать свои сообщения
Вы не можете удалять свои сообщения
Вы не можете голосовать в опросах
Вы не можете прикреплять файлы к сообщениям
Вы не можете скачивать файлы