Сегодня идет свободное скачивание без начисления Download

Французский связной / The French Connection (1971) BDRip [H.264/720p-LQ] [Hi10P]

Ответить на тему
 
Автор
Сообщение

UndegraundMen ®

Стаж: 3 года 9 месяцев

Сообщений: 28329

Торрент-статистика

Пост 26-Окт-2013 20:51

[Цитировать]

Французский связной / The French Connection (1971) BDRip [H.264/720p-LQ] [Hi10P] - Год выпуска: 1971
Жанр: Боевик, Триллер, Криминал
Описание фильма: Сюжет фильма крутится вокруг поимки нью-йоркскими стражами порядка банды преступников, занимающихся транспортировкой наркотиков из Франции. Полицейский Попай - его так прозвали в честь героя известного мультфильма - уверенно идет по следу гангстеров, попадая в самую гущу жизни огромного города.
Режиссер: Уильям Фридкин
Актеры: Джин Хэкмен, Фернандо Рей, Рой Шайдер, Тони Ло Бьянко, Марсель Боззюффи, Фредерик де Паскуале, Билл Хикман, Энн Реббо, Харольд Гари, Арлин Фарбер
Качество: BDRip
Продолжительность: 01:43:42
Перевод: Профессиональный (многоголосый, закадровый), Профессиональный (двухголосый, закадровый), Авторский (одноголосый, закадровый)x3
Оригинальная аудио дорожка: Английская
Язык убтитров: Русские, Английские
Вид субтитров: Вшитые

[url=/forum/viewtopic.php?p=6042154#6042154]Французский связной 2 / The French Connection II (1975)[/url]
Формат: MKV
Видео: MPEG-4 AVC/H.264, 1280x696(1,85:1), 23.976fps, 3714 Кbps, 0.174bit/pixel
Аудио 1: MVO Russian, AC3, 6ch, 48 kHz, 448 kbps, (Многоголосый)
Аудио 2: DVO Russian, AC3, 6ch, 48 kHz, 448 kbps, (Двухголосый) - Отдельным файлом
Аудио 3: AVO Russian, AC3, 6ch, 48 kHz, 448 kbps, (Михалёв) - Отдельным файлом
Аудио 4: AVO Russian, AC3, 6ch, 48 kHz, 448 kbps, (Гаврилов) - Отдельным файлом
Аудио 5: AVO Russian, AC3, 2ch, 48 kHz, 192 kbps, (Володарский) - Отдельным файлом
Аудио 6: DVO Ukraine, AC3, 6ch, 48 kHz, 448 kbps, (Украинский) - Отдельным файлом
Аудио 7: English, AC3, 6ch, 48 kHz, 448 kbps, (Оригинал) - Отдельным файлом
Аудио 8: English, AC3, 2ch, 48 kHz, 224 kbps, (Commentary with Director William Friedkin) - Отдельным файлом
Аудио 9: English, AC3, 2ch, 48 kHz, 224 kbps, (Commentary with Gene Hackman) - Отдельным файлом
Язык субтитров: Russian, English, English Commentary

MediaInfo

Общее
Формат : Matroska
Версия формата : Version 4 / Version 2
Размер файла : 3,07 Гбайт
Продолжительность : 1 ч. 43 м.
Общий поток : 7120 Кбит/сек
Название фильма : Французский связной / The French Connection (1971) BDRip-AVC (Sinteros)
Программа кодирования : mkvmerge v6.5.0 ('Isn't she lovely') built on Oct 20 2013 12:50:05
Библиотека кодирования : libebml v1.3.0 + libmatroska v1.4.1
Attachment : Yes
Видео
Идентификатор : 1
Формат : AVC
Формат/Информация : Advanced Video Codec
Профиль формата : High [url=mailto:[email protected]][email protected][/url]
Параметр CABAC формата : Да
Параметр ReFrames формата : 16 кадров
Идентификатор кодека : V_MPEG4/ISO/AVC
Продолжительность : 1 ч. 43 м.
Битрейт : 3651 Кбит/сек
Ширина : 1280 пикселей
Высота : 696 пикселей
Соотношение сторон : 1,85:1
Режим частоты кадров : Постоянный
Частота кадров : 23,976 кадра/сек
Цветовое пространство : YUV
Субдискретизация насыщенности : 4:2:0
Битовая глубина : 10 бит
Тип развёртки : Прогрессивная
Бит/(Пиксели*Кадры) : 0.171
Размер потока : 2,64 Гбайт (51%)
Заголовок : MPEG-4 AVC/H.264, 1280x696(1,85:1), 23.976fps, 3714 Кbps, 0.174bit/pixel
Библиотека кодирования : x264 core 133 r2334 a3ac64b
Настройки программы : cabac=1 / ref=16 / deblock=1:-1:-1 / analyse=0x3:0x133 / me=tesa / subme=10 / psy=1 / psy_rd=1.00:0.00 / mixed_ref=1 / me_range=32 / chroma_me=1 / trellis=2 / 8x8dct=1 / cqm=0 / deadzone=21,11 / fast_pskip=0 / chroma_qp_offset=-2 / threads=12 / lookahead_threads=1 / sliced_threads=0 / nr=0 / decimate=1 / interlaced=0 / bluray_compat=0 / constrained_intra=0 / bframes=4 / b_pyramid=2 / b_adapt=2 / b_bias=0 / direct=1 / weightb=1 / open_gop=0 / weightp=2 / keyint=250 / keyint_min=23 / scenecut=40 / intra_refresh=0 / rc_lookahead=60 / rc=crf / mbtree=1 / crf=21.0 / qcomp=0.60 / qpmin=0 / qpmax=81 / qpstep=4 / ip_ratio=1.40 / aq=1:1.00
Язык : English
Default : Да
Forced : Нет
Аудио #1
Идентификатор : 2
Формат : AC-3
Формат/Информация : Audio Coding 3
Расширение режима : CM (complete main)
Параметр Endianness формата : Big
Идентификатор кодека : A_AC3
Продолжительность : 1 ч. 43 м.
Вид битрейта : Постоянный
Битрейт : 448 Кбит/сек
Каналы : 6 каналов
Расположение каналов : Front: L C R, Side: L R, LFE
Частота : 48,0 КГц
Битовая глубина : 16 бит
Метод сжатия : С потерями
Размер потока : 332 Мбайт (6%)
Заголовок : MVO Russian, AC3, 6ch, 48 kHz, 448 kbps, (Многоголосый - R5)
Язык : Russian
Default : Да
Forced : Нет
Аудио #2 - Отдельным файлом
Идентификатор : 3
Формат : AC-3
Формат/Информация : Audio Coding 3
Расширение режима : CM (complete main)
Параметр Endianness формата : Big
Идентификатор кодека : A_AC3
Продолжительность : 1 ч. 43 м.
Вид битрейта : Постоянный
Битрейт : 448 Кбит/сек
Каналы : 6 каналов
Расположение каналов : Front: L C R, Side: L R, LFE
Частота : 48,0 КГц
Битовая глубина : 16 бит
Метод сжатия : С потерями
Размер потока : 332 Мбайт (6%)
Заголовок : DVO Russian, AC3, 6ch, 48 kHz, 448 kbps, (Двухголосый)
Язык : Russian
Default : Нет
Forced : Нет
Аудио #3 - Отдельным файлом
Идентификатор : 4
Формат : AC-3
Формат/Информация : Audio Coding 3
Расширение режима : CM (complete main)
Параметр Endianness формата : Big
Идентификатор кодека : A_AC3
Продолжительность : 1 ч. 43 м.
Вид битрейта : Постоянный
Битрейт : 448 Кбит/сек
Каналы : 6 каналов
Расположение каналов : Front: L C R, Side: L R, LFE
Частота : 48,0 КГц
Битовая глубина : 16 бит
Метод сжатия : С потерями
Размер потока : 332 Мбайт (6%)
Заголовок : AVO Russian, AC3, 6ch, 48 kHz, 448 kbps, (Михалёв)
Язык : Russian
Default : Нет
Forced : Нет
Аудио #4 - Отдельным файлом
Идентификатор : 5
Формат : AC-3
Формат/Информация : Audio Coding 3
Расширение режима : CM (complete main)
Параметр Endianness формата : Big
Идентификатор кодека : A_AC3
Продолжительность : 1 ч. 43 м.
Вид битрейта : Постоянный
Битрейт : 448 Кбит/сек
Каналы : 6 каналов
Расположение каналов : Front: L C R, Side: L R, LFE
Частота : 48,0 КГц
Битовая глубина : 16 бит
Метод сжатия : С потерями
Размер потока : 332 Мбайт (6%)
Заголовок : AVO Russian, AC3, 6ch, 48 kHz, 448 kbps, (Гаврилов)
Язык : Russian
Default : Нет
Forced : Нет
Аудио #5 - Отдельным файлом
Идентификатор : 6
Формат : AC-3
Формат/Информация : Audio Coding 3
Расширение режима : CM (complete main)
Параметр Endianness формата : Big
Идентификатор кодека : A_AC3
Продолжительность : 1 ч. 43 м.
Вид битрейта : Постоянный
Битрейт : 192 Кбит/сек
Каналы : 2 канала
Расположение каналов : Front: L R
Частота : 48,0 КГц
Битовая глубина : 16 бит
Метод сжатия : С потерями
Размер потока : 142 Мбайт (3%)
Заголовок : AVO Russian, AC3, 2ch, 48 kHz, 192 kbps, (Володарский)
Язык : Russian
Default : Нет
Forced : Нет
Аудио #6 - Отдельным файлом
Идентификатор : 7
Формат : AC-3
Формат/Информация : Audio Coding 3
Расширение режима : CM (complete main)
Параметр Endianness формата : Big
Идентификатор кодека : A_AC3
Продолжительность : 1 ч. 43 м.
Вид битрейта : Постоянный
Битрейт : 448 Кбит/сек
Каналы : 6 каналов
Расположение каналов : Front: L C R, Side: L R, LFE
Частота : 48,0 КГц
Битовая глубина : 16 бит
Метод сжатия : С потерями
Размер потока : 332 Мбайт (6%)
Заголовок : DVO Ukraine, AC3, 6ch, 48 kHz, 448 kbps, (Украинский)
Язык : Russian
Default : Нет
Forced : Нет
Аудио #7 - Отдельным файлом
Идентификатор : 8
Формат : AC-3
Формат/Информация : Audio Coding 3
Расширение режима : CM (complete main)
Параметр Endianness формата : Big
Идентификатор кодека : A_AC3
Продолжительность : 1 ч. 43 м.
Вид битрейта : Постоянный
Битрейт : 448 Кбит/сек
Каналы : 6 каналов
Расположение каналов : Front: L C R, Side: L R, LFE
Частота : 48,0 КГц
Битовая глубина : 16 бит
Метод сжатия : С потерями
Размер потока : 332 Мбайт (6%)
Заголовок : English, AC3, 6ch, 48 kHz, 448 kbps, (Оригинал)
Язык : English
Default : Нет
Forced : Нет
Аудио #8 - Отдельным файлом
Идентификатор : 9
Формат : AC-3
Формат/Информация : Audio Coding 3
Расширение режима : CM (complete main)
Параметр Endianness формата : Big
Идентификатор кодека : A_AC3
Продолжительность : 1 ч. 43 м.
Вид битрейта : Постоянный
Битрейт : 224 Кбит/сек
Каналы : 2 канала
Расположение каналов : Front: L R
Частота : 48,0 КГц
Битовая глубина : 16 бит
Метод сжатия : С потерями
Размер потока : 166 Мбайт (3%)
Заголовок : English, AC3, 2ch, 48 kHz, 224 kbps, (Commentary with Director William Friedkin)
Язык : English
Default : Нет
Forced : Нет
Аудио #9 - Отдельным файлом
Идентификатор : 10
Формат : AC-3
Формат/Информация : Audio Coding 3
Расширение режима : CM (complete main)
Параметр Endianness формата : Big
Идентификатор кодека : A_AC3
Продолжительность : 1 ч. 43 м.
Вид битрейта : Постоянный
Битрейт : 224 Кбит/сек
Каналы : 2 канала
Расположение каналов : Front: L R
Частота : 48,0 КГц
Битовая глубина : 16 бит
Метод сжатия : С потерями
Размер потока : 166 Мбайт (3%)
Заголовок : English, AC3, 2ch, 48 kHz, 224 kbps, (Commentary with Gene Hackman)
Язык : English
Default : Нет
Forced : Нет
Текст #1
Идентификатор : 11
Формат : UTF-8
Идентификатор кодека : S_TEXT/UTF8
Идентификатор кодека/Информация : UTF-8 Plain Text
Язык : English
Default : Нет
Forced : Нет
Текст #2
Идентификатор : 12
Формат : UTF-8
Идентификатор кодека : S_TEXT/UTF8
Идентификатор кодека/Информация : UTF-8 Plain Text
Язык : Russian
Default : Нет
Forced : Нет
Текст #3
Идентификатор : 13
Формат : UTF-8
Идентификатор кодека : S_TEXT/UTF8
Идентификатор кодека/Информация : UTF-8 Plain Text
Заголовок : Commentary with Director William Friedkin
Язык : English
Default : Нет
Forced : Нет
Текст #4
Идентификатор : 14
Формат : UTF-8
Идентификатор кодека : S_TEXT/UTF8
Идентификатор кодека/Информация : UTF-8 Plain Text
Заголовок : Commentary with Gene Hackman
Язык : English
Default : Нет
Forced : Нет
Меню
00:00:00.000 : en:Main Titles
00:00:55.680 : en:In the Cool of the Pool
00:03:32.754 : en:Class in Session
00:07:23.693 : en:A Yelp for Help
00:09:43.249 : en:Community Standards
00:14:40.963 : en:Who-Ville
00:20:37.819 : en:96 Daughters
00:23:05.509 : en:Family Tradition
00:25:53.134 : en:Keep it to Yourself
00:29:32.479 : en:Good News Only
00:32:55.306 : en:Cosmic Convergence
00:34:33.279 : en:Brainiest Brain
00:39:25.696 : en:The Perfect Place
00:41:03.419 : en:Horton the Brave
00:42:01.685 : en:Making Trouble
00:45:29.184 : en:Lighter Than a Feather
00:51:59.533 : en:Weird Feeling
00:55:04.676 : en:Being Alone
01:02:17.483 : en:Evil Plans
01:05:08.988 : en:Summer Show
01:06:24.981 : en:Code of Honor
01:10:08.245 : en:Vlad Attacks
01:16:48.145 : en:Warning Who-Ville
01:17:39.821 : en:The Clover Field
01:24:54.714 : en:Finding the Speck
01:28:32.849 : en:Under Attack
01:31:00.246 : en:Admit You're Wrong
01:32:33.965 : en:We Are Here!
01:36:28.866 : en:One More Voice
01:39:37.346 : en:Hearing the Whos
01:41:30.334 : en:No Matter How Small
01:42:00.489 : en:End Titles
01:43:41.506 : en:
Примечание: Рип в High 10 Profile, в настоящее время не поддерживается большинством аппаратных проигрывателей, поэтому предназначен исключительно для воспроизведения на ПК. Для корректного воспроизведения может потребоваться обновление ПО.
Скриншоты:
         
         
Вне форума [Профиль] [ЛС]
Похожие темы
Форум Тема Автор Торрент Отв. Посл. сообщение
./templates/default/images/folder_dl.gif Фильмы 2011-2016 Французский шпион (Алексей Феоктистов) [2014 г., боевик, детектив, DVDRip-AVC] [Лицензия] Omen
1 | 0

0 | 909

42

2014-09-26 11:28
Omen Последнее
./templates/default/images/folder_dl.gif Зарубежное кино Люси / Lucy (Люк Бессон / Luc Besson) [2014, Франция, фантастика, боевик, BDRip 720p] Dub + Sub Rus, Ukr, Eng + Original Eng Omen
1 | 0

1 | 469

20

2015-01-08 03:35
r154 Последнее
Показать сообщения:    
Ответить на тему

Текущее время: Сегодня 17:34

Часовой пояс: GMT + 3



Вы не можете начинать темы
Вы не можете отвечать на сообщения
Вы не можете редактировать свои сообщения
Вы не можете удалять свои сообщения
Вы не можете голосовать в опросах
Вы не можете прикреплять файлы к сообщениям
Вы не можете скачивать файлы