Сегодня идет свободное скачивание без начисления Download

Американский жиголо / American Gigolo (1979) BDRip

Ответить на тему
 
Автор
Сообщение

UndegraundMen ®

Стаж: 3 года 9 месяцев

Сообщений: 28329

Торрент-статистика

Пост 26-Окт-2013 23:01

[Цитировать]

Американский жиголо / American Gigolo (1979) BDRip- Год выпуска: 1979
Производство: США
Жанр: Триллер, Драма, Криминал
Описание фильма:
Второго такого не найти! Джулиан Кэй — единственный и неповторимый! Он легко изъясняется на шести языках. Он — изысканный, начитанный собеседник. Он — чувственен и интеллигентен. Он безмерно элегантен и немыслимо привлекателен. Ни одна женщина не в силах устоять перед его чарами. Что, в сущности, и требуется Джулиану для его повседневной работы, так как он — профессиональный соблазнитель...
Режиссер: Пол Шредер
Актеры: Ричард Гир, Лорен Хаттон, Гектор Элизондо, Нина Ван Палландт, Билл Дьюк, Брайан Дейвис, К Кэллан, Том Стюарт, Патриция Карр, Дэвид Крайер
Продолжительность: 01:56:35
Качество видео: BDRip
Перевод: Многоголосый закадровый, профессиональный + СТС

Дата мировой премьеры: 1 февраля 1980
Дата выхода DVD релиза: 25 января 2011, «Юниверсал Пикчерс Рус»
Видеокодек: Xvid
Битрейт видео: ~2026 kb/s
Размер кадра: 704x400
Аудио 1: AC3 5.1, 448 kb/s, Русский
Аудио 2: AC3 2.0, 192 kb/s, Русский (СТС)
Сэмпл: Ссылка

MediaInfo:

Общее
Полное имя : C:Торренты\Американский жиголо.1979.BDRip.avi
Формат : AVI
Формат/Информация : Audio Video Interleave
Профиль формата : OpenDML
Размер файла : 2,19 Гбайт
Продолжительность : 1 ч. 56 м.
Общий поток : 2684 Кбит/сек
Программа кодирования : VirtualDubMod 1.5.10.3 (build 2550/release)
Библиотека кодирования : VirtualDubMod build 2550/release
Видео
Идентификатор : 0
Формат : MPEG-4 Visual
Профиль формата : Advanced [email protected]
Параметр BVOP формата : 2
Параметр QPel формата : Нет
Параметр GMC формата : Без точки перехода
Параметр матрицы формата : Выборочная
Идентификатор кодека : XVID
Идентификатор кодека/Подсказка : XviD
Продолжительность : 1 ч. 56 м.
Битрейт : 2026 Кбит/сек
Ширина : 704 пикселя
Высота : 400 пикселей
Соотношение сторон : 16:9
Частота кадров : 23,976 кадра/сек
Цветовое пространство : YUV
Субдискретизация насыщенности : 4:2:0
Битовая глубина : 8 бит
Тип развёртки : Прогрессивная
Метод сжатия : С потерями
Бит/(Пиксели*Кадры) : 0.300
Размер потока : 1,65 Гбайт (75%)
Библиотека кодирования : XviD 73
Аудио #1
Идентификатор : 1
Формат : AC-3
Формат/Информация : Audio Coding 3
Расширение режима : CM (complete main)
Параметр Endianness формата : Big
Идентификатор кодека : 2000
Продолжительность : 1 ч. 56 м.
Вид битрейта : Постоянный
Битрейт : 448 Кбит/сек
Каналы : 6 каналов
Расположение каналов : Front: L C R, Side: L R, LFE
Частота : 48,0 КГц
Битовая глубина : 16 бит
Метод сжатия : С потерями
Размер потока : 374 Мбайт (17%)
Выравнивание : Разделение по промежуткам
Продолжительность промежутка : 42 мс. (1,00 видеокадр)
Время предзагрузки промежутка : 500 мс.
Аудио #2
Идентификатор : 2
Формат : AC-3
Формат/Информация : Audio Coding 3
Расширение режима : CM (complete main)
Параметр Endianness формата : Big
Идентификатор кодека : 2000
Продолжительность : 1 ч. 56 м.
Вид битрейта : Постоянный
Битрейт : 192 Кбит/сек
Каналы : 2 канала
Расположение каналов : Front: L R
Частота : 48,0 КГц
Битовая глубина : 16 бит
Метод сжатия : С потерями
Размер потока : 160 Мбайт (7%)
Выравнивание : Разделение по промежуткам
Продолжительность промежутка : 42 мс. (1,00 видеокадр)
Время предзагрузки промежутка : 500 мс.

Знаете ли вы, что...

- Изначально роль Джулиана была предложена Джону Траволте, но после того, как он отказался, отошла Ричарду Гиру. Узнав о том, что Траволта не будет участвовать в проекте, актриса Джули Кристи отказалась играть Мишель Страттон, и ее заменила Лорен Хаттон.
- Кристофер Рив отклонил предложение сняться в фильме вместе с большим для того времени миллионным гонораром.
- Главная женская роль предлагалась Мэрил Стрип, но уже тогда известная актриса отказалась, посчитав неподходящей общую тональность материала.
Скриншоты:          Время раздачи: с 10.00 до 22.00Незабываем благодарить релизёров
Вне форума [Профиль] [ЛС]
Похожие темы
Форум Тема Автор Торрент Отв. Посл. сообщение
./templates/default/images/folder_dl.gif ЖЗЛ. Биографии. Мемуары. Историография. Дмитрий Таболкин | 100 знаменитых американцев [2008] [FB2] sashau
1 | 0

0 | 763

2

2013-04-06 17:38
sashau Последнее
./templates/default/images/folder_dl.gif Видеотренинги Илья Нодия | Американская рекламная фотография (2015) CamRip [H.264/720p] Omen
1 | 0

0 | 56

11

2015-10-03 20:37
Omen Последнее
Показать сообщения:    
Ответить на тему

Текущее время: Сегодня 08:56

Часовой пояс: GMT + 3



Вы не можете начинать темы
Вы не можете отвечать на сообщения
Вы не можете редактировать свои сообщения
Вы не можете удалять свои сообщения
Вы не можете голосовать в опросах
Вы не можете прикреплять файлы к сообщениям
Вы не можете скачивать файлы