Сегодня идет свободное скачивание без начисления Download

Бунтарь без идеала / Rebel Without a Cause (1955) BDRip [1080p]

Ответить на тему
 
Автор
Сообщение

UndegraundMen ®

Стаж: 3 года 9 месяцев

Сообщений: 28329

Торрент-статистика

Пост 27-Окт-2013 11:03

[Цитировать]

Бунтарь без идеала / Rebel Without a Cause (1955) BDRip«Teenage terror torn from today's headlines»- Год выпуска: 1955
Жанр: Драма, Мелодрама
Производство: США
Перевод: Многоголосый закадровый
Вид субтитров: Вшитые отключаемые
Язык субтитров: Английский (PGS)-Режиссер: Николас Рэй
Актеры: Джеймс Дин Натали Вуд Сэл Минео Джим Бакус Энн Доран Кори Аллен Уильям Хоппер Рошелль Хадсон Эдвард Платт Штеффи Сидни-Описание фильма:
Шалопай и сорвиголова Джим вынужден постоянно ходить во все новые и новые школы, так как его отовсюду выгоняют. Вот и на этот раз он идет в новый класс, где встречает классную девчонку.
Между ними сразу возникает взаимная симпатия, но она не собирается сдаваться ему сразу и без борьбы — она изо всех сил дразнит его, она уделяет повышенное внимание своему старому бойфренду, крутому «кожаному» Базу, она провоцирует обоих парней на поединок.
И он должен состояться — на огромной скорости машины направляются к обрыву…- -Дата мировой премьеры: 27 октября 1955
Рейтинг PG-13 - Детям до 13 лет просмотр не желателен-Продолжительность: 01:50:55
Качество видео: BDRip 1080p
Контейнер: MKV
Видеокодек: MPEG-4 AVC/H.264
Битрейт видео: ~8362 Kbps
Размер кадра: 1920x752
Аудио 1: Digital Theater Systems 1509 Kbps 5.1 / 48 kHz / 24 bit /Английский/
Аудио 2: Dolby Digital Audio 384 Kbps 5.1 / 48 kHz / 16 bits /Русский- Многоголосый закадровый/
Сохранены оригинальные чаптеры как на Blu-ray.-

Награды и номинации:


Знаете ли вы, что...

  • Название фильма основано на названии научной работы 1944 года доктора Роберта М. Линднера, посвящённой проблемам гипноанализа малолетних преступников («Rebel Without A Cause: The Hypnoanalysis of a Criminal Psychopath»).
  • Ленту собирались делать черно-белой, и уже были отсняты несколько сцен, когда Warner Bros. решила ради престижа сделать цветной фильм. На это студию подтолкнули огромные кассовые сборы «К Востоку от рая» (1955) Элиа Казана — предыдущего фильма с Джеймсом Дином. Рэй особенно был счастлив снимать фильм в цвете, так как у него наготове было несколько ярких символов. Практически каждый цвет (начиная от красной куртки Джима и заканчивая его синими джинсами) имел свою символику.
  • Джим кривляется голосом «мультяшного» героя Мистера Магу. Ирония в том, что отца Джима играет актер Джим Бэкус, который и озвучивал этого героя. Бэкус даже учил Дина, как правильно говорить голосом Магу.
  • По результатам опроса, проведенного британской сетью мультиплексов UCI Cinemas фильм был признан самым стильным фильмом за всю историю кино.
  • Все действие фильма разворачивается в течение 24 часов.
  • Рэй не очень хотел давать роль Джуди Натали Вуд, потому что считал её слишком наивной и неопытной. Вуд в кратчайшие сроки научилась курить и изменила свои взгляды на жизнь, доказав, что способна быть зрелой и взрослой.
  • В сцене, когда Джим вымещает свою ярость на столе полицейского, Дин действительно разбил себе руку.
  • Режиссёр Николас Рей провёл несколько ночей в компании молодёжных банд Лос-Анджелеса, чтобы почувствовать атмосферу событий будущего фильма.
  • На главную роль хотели пригласить Марлона Брандо, однако от этой идеи пришлось отказаться — за два года до «Бунтовщика» Брандо сыграл в схожем фильме под названием «Дикий одиночка» (1953 года).
  • На протяжении почти всего фильма Джеймс Дин был одет в белую футболку, которая с момента своего изобретения была исключительно нижним бельем. До Дина в футболках на экране появлялись такие актёры, как Марлон Брандо и Джон Уэйн, но именно этот фильм продвинул майку в массы и сделал полноправной верхней одеждой: сразу после выхода фильма продажи футболок сначала в США, а потом и во всем мире сильно возросли.
  • Один из актёров — Френк Маззола — являлся членом уличной банды. Именно он учил Дина дракам на ножах.
  • Трагедия фильма имела продолжение и вне экрана, так как все три главных героя умерли не своей смертью. Минео был убит в Западном Голливуде 12 февраля 1976 года в возрасте 37 лет. Вуд утонула при загадочных до сих пор обстоятельствах в возрасте 43 лет. Сам Дин разбился на гоночном автомобиле со скоростью более 100 миль в час на шоссе в Калифорнии 30 сентября 1955 года в возрасте 24 лет.
  • Фамилия Stark — анаграмма фамилии Trask одного из героев фильма «К востоку от Рая» (1955 года), которого сыграл в этом фильме Дин.
  • Человека, подходящего к обсерватории в самом конце фильма, сыграл режиссёр Николас Рей. По слухам, он появляется во всех своих картинах.
  • Именно на съёмках этой картины Дин особо пристрастился к быстрой езде: одна из наиболее известных и жестоких сцен фильма была посвящена гонкам у края пропасти, в которых ради самоутверждения участвовал Джим Старк.
  • Съемочный период: 28 марта — 25 мая 1955 года.

MediaInfo:

Общее
Уникальный идентификатор : 243830934141712854639439677641361332788 (0xB7702136D8BEFD07B8158AB4C9621A34)
Полное имя : Rebel Without a Cause (1955).BDRip.1080p.mkv
Формат : Matroska
Версия формата : Version 2
Размер файла : 7,95 Гбайт
Продолжительность : 1 ч. 50 м.
Общий поток : 10,3 Мбит/сек
Дата кодирования : UTC 2013-10-26 20:02:50
Программа кодирования : mkvmerge v4.3.0 ('Escape from the Island') сборка от Sep 5 2010 10:30:51
Библиотека кодирования : libebml v1.0.0 + libmatroska v1.0.0
Видео
Идентификатор : 1
Формат : AVC
Формат/Информация : Advanced Video Codec
Профиль формата : [url=mailto:[email protected]][email protected][/url]
Параметр CABAC формата : Да
Параметр ReFrames формата : 5 кадров
Режим смешивания : Header stripping
Идентификатор кодека : V_MPEG4/ISO/AVC
Продолжительность : 1 ч. 50 м.
Битрейт : 8362 Кбит/сек
Ширина : 1920 пикселей
Высота : 752 пикселя
Соотношение сторон : 2,553
Режим частоты кадров : Постоянный
Частота кадров : 23,976 кадра/сек
Цветовое пространство : YUV
Субдискретизация насыщенности : 4:2:0
Битовая глубина : 8 бит
Тип развёртки : Прогрессивная
Бит/(Пиксели*Кадры) : 0.242
Размер потока : 6,32 Гбайт (80%)
Библиотека кодирования : x264 core 138 r2358 9e941d1
Настройки программы : cabac=1 / ref=5 / deblock=1:0:0 / analyse=0x3:0x133 / me=umh / subme=7 / psy=1 / psy_rd=1.00:0.00 / mixed_ref=1 / me_range=16 / chroma_me=1 / trellis=1 / 8x8dct=1 / cqm=0 / deadzone=21,11 / fast_pskip=0 / chroma_qp_offset=-2 / threads=18 / lookahead_threads=3 / sliced_threads=0 / nr=0 / decimate=1 / interlaced=0 / bluray_compat=0 / constrained_intra=0 / bframes=3 / b_pyramid=2 / b_adapt=2 / b_bias=0 / direct=3 / weightb=1 / open_gop=0 / weightp=2 / keyint=250 / keyint_min=23 / scenecut=40 / intra_refresh=0 / rc_lookahead=50 / rc=2pass / mbtree=1 / bitrate=8362 / ratetol=1.0 / qcomp=0.60 / qpmin=0 / qpmax=69 / qpstep=4 / cplxblur=20.0 / qblur=0.5 / ip_ratio=1.40 / aq=1:1.00
Язык : English
Default : Да
Forced : Нет
Аудио #1
Идентификатор : 2
Формат : DTS
Формат/Информация : Digital Theater Systems
Режим : 16
Параметр Endianness формата : Big
Режим смешивания : Header stripping
Идентификатор кодека : A_DTS
Продолжительность : 1 ч. 50 м.
Вид битрейта : Постоянный
Битрейт : 1509 Кбит/сек
Каналы : 6 каналов
Расположение каналов : Front: L C R, Side: L R, LFE
Частота : 48,0 КГц
Битовая глубина : 24 бит
Метод сжатия : С потерями
Задержка видео : 11 мс.
Размер потока : 1,17 Гбайт (15%)
Язык : English
Default : Да
Forced : Нет
Аудио #2
Идентификатор : 3
Формат : AC-3
Формат/Информация : Audio Coding 3
Расширение режима : CM (complete main)
Параметр Endianness формата : Big
Режим смешивания : Header stripping
Идентификатор кодека : A_AC3
Продолжительность : 1 ч. 50 м.
Вид битрейта : Постоянный
Битрейт : 384 Кбит/сек
Каналы : 6 каналов
Расположение каналов : Front: L C R, Side: L R, LFE
Частота : 48,0 КГц
Битовая глубина : 16 бит
Метод сжатия : С потерями
Размер потока : 305 Мбайт (4%)
Заголовок : MVO
Язык : Russian
Default : Нет
Forced : Нет
Текст
Идентификатор : 4
Формат : UTF-8
Идентификатор кодека : S_TEXT/UTF8
Идентификатор кодека/Информация : UTF-8 Plain Text
Язык : English
Default : Нет
Forced : Нет
Меню
00:00:00.000 : en:00:00:00.000
00:10:04.938 : en:00:10:04.938
00:21:59.610 : en:00:21:59.610
00:30:30.328 : en:00:30:30.328
00:42:01.686 : en:00:42:01.686
00:51:38.637 : en:00:51:38.637
01:05:36.683 : en:01:05:36.683
01:17:20.886 : en:01:17:20.886
01:27:44.634 : en:01:27:44.634
01:39:05.064 : en:01:39:05.064

Bitrate Viewer:

-Скриншоты:          
         
-Бунтарь без идеала на NNM-CLUB
Время раздачи: с 10:00 до 00:00 по возможности
Вне форума [Профиль] [ЛС]
Показать сообщения:    
Ответить на тему

Текущее время: Сегодня 17:34

Часовой пояс: GMT + 3



Вы не можете начинать темы
Вы не можете отвечать на сообщения
Вы не можете редактировать свои сообщения
Вы не можете удалять свои сообщения
Вы не можете голосовать в опросах
Вы не можете прикреплять файлы к сообщениям
Вы не можете скачивать файлы