Сегодня идет свободное скачивание без начисления Download

Богатенький Ричи / Richie Rich (Дональд Питри) [1994, комедия, семейный, HDRip] DUB

Ответить на тему
 
Автор
Сообщение

O.S.A. ®

Пол:

Стаж: 3 года 1 месяц

Сообщений: 4520

Откуда: СССР

Торрент-статистика

Пост 01-Ноя-2013 22:15

[Цитировать]

--Богатенький Ричи / Richie Rich-- Год выпуска: 1994
Страна: США
Производство: Davis Entertainment, Silver Pictures, Warner Bros. Pictures
Жанр: комедия, семейный
Продолжительность: 01:34:30
Перевод: Профессиональный (полное дублирование)-Режиссер: Дональд Питри-В ролях: Маколей Калкин, Джон Ларрокетт, Эдвард Херрманн, Кристин Эберсоул, Джонатан Хайд, Майкл МакШейн, Челси Росс, Марианджела Пино, Стефи Лайнбург, Майкл Маккароне...-Описание: Будучи единственным наследником богатейшего состояния мистера Рича, его сынишка Ричи живет в мире немыслимой роскоши. У него есть все, о чем только может мечтать мальчик этого возраста, все, что можно купить за деньги. Но этой тепличной жизни грозит опасность.
Коварный мошенник Лоуренс ван Доу решил прикарманить все состояние Ричей и уже придумал хитроумный план. И пока старшие Ричи путешествуют где-то в море на своей яхте, молодой Ричи с помощью новых друзей и верного пса по кличке Доллар раскрывает замысел и спасает семейное достояние. Для себя же Ричи открывает одну истину — настоящая дружба стоит гораздо больше, чем все его состояние.-- --Качество видео: HDRip
Формат видео: AVI
Видео кодек: XviD
Аудио кодек: МР3
Видео: 656x368 (1.78:1), 23.976 fps, XviD build 73, ~965 kbps avg, 0.167 bit/pixel
Аудио: 48.0 kHz, MPEG Audio Layer 3, 2 ch, ~128.00 kbps avg
Cубтитры: нет--

Media Info

D:Мои рипыBogaten'kij.Richi.1994.HDRip.745mb.dexter_lex.avi
General
Complete name : D:Мои рипыBogaten'kij.Richi.1994.HDRip.745mb.dexter_lex.avi
Format : AVI
Format/Info : Audio Video Interleave
File size : 745 MiB
Duration : 1h 34mn
Overall bit rate : 1 102 Kbps
Writing application : VirtualDubMod 1.5.10.3 | www.virtualdub-fr.org || (build 2550/release)
Writing library : VirtualDubMod build 2550/release
Video #0
ID : 0
Format : MPEG-4 Visual
Format profile : Advanced [email protected]
Format settings, BVOP : 1
Format settings, QPel : No
Format settings, GMC : No warppoints
Format settings, Matrix : Custom
Codec ID : XVID
Codec ID/Hint : XviD
Duration : 1h 34mn
Bit rate : 965 Kbps
Width : 656 pixels
Height : 368 pixels
Display aspect ratio : 16:9
Frame rate : 23.976 fps
Color space : YUV
Chroma subsampling : 4:2:0
Bit depth : 8 bits
Scan type : Progressive
Compression mode : Lossy
Bits/(Pixel*Frame) : 0.167
Stream size : 652 MiB (88%)
Writing library : XviD 73
Audio #1
ID : 1
Format : MPEG Audio
Format version : Version 1
Format profile : Layer 3
Codec ID : 55
Codec ID/Hint : MP3
Duration : 1h 34mn
Bit rate mode : Constant
Bit rate : 128 Kbps
Channel(s) : 2 channels
Sampling rate : 48.0 KHz
Compression mode : Lossy
Stream size : 86.5 MiB (12%)
Alignment : Aligned on interleaves
Interleave, duration : 42 ms (1.00 video frame)
Interleave, preload duration : 504 ms
Writing library : LAME3.99r
Encoding settings : -m s -V 4 -q 2 -lowpass 17 -b 128

Скриншоты

     
-- --

_________________

===============================
IGNOSCITO SAEPE ALTERI, NUNQUAM TIBI
Вне форума [Профиль] [ЛС]
Похожие темы
Форум Тема Автор Торрент Отв. Посл. сообщение
./templates/default/images/folder_dl.gif Иностранные мультфильмы Три богатыря: Ход конем (Константин Феоктистов)[2014.,мультфильм, комедия, приключения, фэнтези] BDRip sashau
1 | 0

1 | 718

38

2015-02-26 13:45
Dracula Последнее
Показать сообщения:    
Ответить на тему

Текущее время: Сегодня 13:12

Часовой пояс: GMT + 3



Вы не можете начинать темы
Вы не можете отвечать на сообщения
Вы не можете редактировать свои сообщения
Вы не можете удалять свои сообщения
Вы не можете голосовать в опросах
Вы не можете прикреплять файлы к сообщениям
Вы не можете скачивать файлы