Сегодня идет свободное скачивание без начисления Download

Девушка моей мечты / Die Frau meiner Traume (1944) DVDRip

Ответить на тему
 
Автор
Сообщение

UndegraundMen ®

Стаж: 3 года 9 месяцев

Сообщений: 28329

Торрент-статистика

Пост 01-Ноя-2013 23:00

[Цитировать]

Девушка моей мечты / Die Frau meiner Traume (1944) DVDRip- Год выпуска: 1944
Страна: Германия
Жанр: Комедия, Музыкальный
Описание фильма:
Темпераментная и обворожительная «звезда» варьете Юлия решает отдохнуть от поклонников и славы. Но директор театра не разделяет стремления популярной актрисы к уединению — он «категорически против»!
Зная об этом, любимица публики решает бежать «в отпуск» тайком, и в результате директорских козней и нелепых случайностей оказывается в пути без денег, документов и билета.
Строгие контролеры «звезду» театра не узнали, и Юлия среди ночи осталась одна на глухом полустанке. В отчаянии девушка из мечты постучалась в первый попавшийся дом. Она искала только участия, а нашла любовь…
Этот легендарный фильм штандартенфюрер СС Штрилиц смотрел 13 раз.
Режиссер: Георг Якоби
Актеры: Марика Рёкк, Вольфганг Лукши, Вальтер Мюллер, Георг Александер, Грета Вайзер, Инге Дрексель, Карл Ханнеманн, Карл Этлингер, Виктор Янсон, Якоб Тидтке
Продолжительность: 01:33:46
Качество видео: DVDRip
Перевод: Многоголосый профессиональный закадровый

Видеокодек: XVID
Битрейт видео: ~2395 Кбит/сек
Размер кадра: 720x512
Субтитры: Внешние отключаемые русские полные и укороченные(только песни)
Аудиокодек: AC3, 2.0
Битрейт аудио: 192 Кбит/сек
Audio 1: AC3, 2 ch, 192 Кбит/сек - профессиональный двухголосый закадровый (с переводом песен)
Audio 2: AC3, 2 ch, 192 Кбит/сек - профессиональный двухголосый закадровый (без перевода песен)
Audio 3: AC3, 2 ch, 192 Кбит/сек - немецкий оригинальный

MediaInfo:

Общее
Полное имя : E:\Интересно\Коллекция Звезды III-го рейха\Девушка моей мечты\Девушка моей мечты (1944) DVDRip\Девушка моей мечты.avi
Формат : AVI
Формат/Информация : Audio Video Interleave
Размер файла : 1,96 Гбайт
Продолжительность : 1 ч. 33 м.
Общий поток : 2990 Кбит/сек
Название фильма : Девушка моей мечты / Die Frau meiner Traume (1944)
Программа кодирования : VirtualDubMod 1.5.10.2 (build 2540/release)
Правообладатель : SheFF (Ю. А.)
Примечание : for .org
Видео
Идентификатор : 0
Формат : MPEG-4 Visual
Профиль формата : Advanced [email protected]
Параметр BVOP формата : 1
Параметр QPel формата : Нет
Параметр GMC формата : Без точки перехода
Параметр матрицы формата : Default (MPEG)
Режим смешивания : Сжатый битовый поток
Идентификатор кодека : XVID
Идентификатор кодека/Подсказка : XviD
Продолжительность : 1 ч. 33 м.
Битрейт : 2395 Кбит/сек
Ширина : 720 пикселей
Высота : 512 пикселей
Соотношение сторон : 1,406
Частота кадров : 25,000 кадров/сек
Цветовое пространство : YUV
Субдискретизация насыщенности : 4:2:0
Битовая глубина : 8 бит
Тип развёртки : Прогрессивная
Метод сжатия : С потерями
Бит/(Пиксели*Кадры) : 0.260
Размер потока : 1,57 Гбайт (80%)
Библиотека кодирования : XviD 1.2.1 (UTC 2008-12-04)
Аудио #1
Идентификатор : 1
Формат : AC-3
Формат/Информация : Audio Coding 3
Расширение режима : CM (complete main)
Параметр Endianness формата : Big
Идентификатор кодека : 2000
Продолжительность : 1 ч. 33 м.
Вид битрейта : Постоянный
Битрейт : 192 Кбит/сек
Каналы : 2 канала
Расположение каналов : Front: L R
Частота : 48,0 КГц
Битовая глубина : 16 бит
Метод сжатия : С потерями
Размер потока : 129 Мбайт (6%)
Выравнивание : Разделение по промежуткам
Продолжительность промежутка : 40 мс. (1,00 видеокадр)
Время предзагрузки промежутка : 500 мс.
Аудио #2
Идентификатор : 2
Формат : AC-3
Формат/Информация : Audio Coding 3
Расширение режима : CM (complete main)
Параметр Endianness формата : Big
Идентификатор кодека : 2000
Продолжительность : 1 ч. 33 м.
Вид битрейта : Постоянный
Битрейт : 192 Кбит/сек
Каналы : 2 канала
Расположение каналов : Front: L R
Частота : 48,0 КГц
Битовая глубина : 16 бит
Метод сжатия : С потерями
Размер потока : 129 Мбайт (6%)
Выравнивание : Разделение по промежуткам
Продолжительность промежутка : 40 мс. (1,00 видеокадр)
Время предзагрузки промежутка : 500 мс.
Аудио #3
Идентификатор : 3
Формат : AC-3
Формат/Информация : Audio Coding 3
Расширение режима : CM (complete main)
Параметр Endianness формата : Big
Идентификатор кодека : 2000
Продолжительность : 1 ч. 33 м.
Вид битрейта : Постоянный
Битрейт : 192 Кбит/сек
Каналы : 2 канала
Расположение каналов : Front: L R
Частота : 48,0 КГц
Битовая глубина : 16 бит
Метод сжатия : С потерями
Размер потока : 129 Мбайт (6%)
Выравнивание : Разделение по промежуткам
Продолжительность промежутка : 40 мс. (1,00 видеокадр)
Время предзагрузки промежутка : 500 мс.
Скриншоты:
         
Вне форума [Профиль] [ЛС]
Похожие темы
Форум Тема Автор Торрент Отв. Посл. сообщение
./templates/default/images/folder_dl.gif Обучающее видео Егор Шереметьев | DVD-курс "100 вопросов и ответов как познакомиться и соблазнить девушку" (2013) [WEB-DLRip] Omen
1 | 0

0 | 687

26

2014-01-21 16:30
Omen Последнее
./templates/default/images/folder_dl.gif Обучающее видео Данила Деличев | Проверенный Способ Вернуть Любимую Девушку за 6 Недель (2014) [PCRec] Omen
1 | 0

3 | 3965

60

2016-03-28 22:44
jiaito Последнее
./templates/default/images/folder_dl.gif Обучающее видео Алекс Мэй | Как организовать секс с двумя девушками (2011) CamRip Omen
2 | 0

0 | 146

43

2015-05-19 18:27
Omen Последнее
./templates/default/images/folder_sticky.gif Ролики, сайт рипы Русские Пикаперы Снимают Девушек (51-ролик)[MyPickupGirls.com][2007-2009 г., Teens, PickUp, Public, Oral, Classic, Anal Sex., SiteRip] Fanatik
1 | 0

0 | 847

26

2016-03-09 20:30
Fanatik Последнее
Показать сообщения:    
Ответить на тему

Текущее время: Сегодня 17:34

Часовой пояс: GMT + 3



Вы не можете начинать темы
Вы не можете отвечать на сообщения
Вы не можете редактировать свои сообщения
Вы не можете удалять свои сообщения
Вы не можете голосовать в опросах
Вы не можете прикреплять файлы к сообщениям
Вы не можете скачивать файлы