Сегодня идет свободное скачивание без начисления Download

Гаспароне / Gasparone (1937) DVDRip

Ответить на тему
 
Автор
Сообщение

UndegraundMen ®

Стаж: 3 года 9 месяцев

Сообщений: 28329

Торрент-статистика

Пост 01-Ноя-2013 23:01

[Цитировать]

Гаспароне / Gasparone (1937) DVDRip- Год выпуска: 1937
Жанр: Комедия, Музыкальный
Описание фильма:
В Берлине на киностудии УФА Георгом Якоби, режиссером всех лучших работ Марики Рекк и ее супругом, была снята экранизация знаменитой оперетты. В далеких джунглях пропал муж графини Шарлотты Амбрат (Эдит Шоулер). Вдова уже десять лет ожидает юридического признания факта его смерти, чтобы вступить во владение фамильным замком. Насони (Лео Слезак). Жуликоватый городской префект, зная, что такой документ скоро будет подписан, мечтает женить своего сына Зиндульфо (Хайнц Шорлеммер) на богатой вдове. Отцу невдомек, что парень тайно влюблен в небогатую красавицу Иту (Марика Рекк) и впервые готов противиться воле отца. Неожиданно выясняется, что зловещий разбойник Гаспароне, которого никто ни разу не видел, но который держит в страхе весь город, планирует помочь влюбленным, так как сам имеет виды на Шарлотту. Сюжет становится все смешней и запутанней с каждой минутой, к тому же светское общество начинает подозревать, что графиня, возможно, еще не вдова...
Режиссер: Георг Якоби
Актеры: Марика Рёкк, Иоханнес Хестерс, Хайнц Шорлеммер, Эдит Шолльвер, Оскар Сима, Лео Слезак, Рудольф Платте, Эльза Вагнер, Урсула Херкинг, Арним Суессенгут
Продолжительность: 01:28:21
Качество видео: DVDRip
Перевод: Двуголосый закадровый профессиональный

Видеокодек: Xvid
Битрейт видео: ~1231 Кбит/сек
Размер кадра: 720x576
Аудиокодек: AC3 2.0
Битрейт аудио:
Audio 1: AC3, 2 ch, 192 Кбит/сек - русский
Audio 2: MP3, 2 ch, 256 Кбит/сек - немецкий оригинальный

MediaInfo:

Общее
Полное имя : E:\Интересно\Коллекция Звезды III-го рейха\Гаспароне\Гаспароне (1937) DVDRip.avi
Формат : AVI
Формат/Информация : Audio Video Interleave
Размер файла : 1,05 Гбайт
Продолжительность : 1 ч. 28 м.
Общий поток : 1694 Кбит/сек
Программа кодирования : VirtualDubMod 1.5.4.1 (build 2066/release)
Библиотека кодирования : VirtualDubMod build 2066/release
Видео
Идентификатор : 0
Формат : MPEG-4 Visual
Профиль формата : Advanced [email protected]
Параметр BVOP формата : 2
Параметр QPel формата : Нет
Параметр GMC формата : Без точки перехода
Параметр матрицы формата : Default (H.263)
Режим смешивания : Сжатый битовый поток
Идентификатор кодека : XVID
Идентификатор кодека/Подсказка : XviD
Продолжительность : 1 ч. 28 м.
Битрейт : 1231 Кбит/сек
Ширина : 720 пикселей
Высота : 576 пикселей
Соотношение сторон : 5:4
Частота кадров : 25,000 кадров/сек
Стандарт вещания : PAL
Цветовое пространство : YUV
Субдискретизация насыщенности : 4:2:0
Битовая глубина : 8 бит
Тип развёртки : Прогрессивная
Метод сжатия : С потерями
Бит/(Пиксели*Кадры) : 0.119
Размер потока : 778 Мбайт (73%)
Библиотека кодирования : XviD 1.2.0.dev47 (UTC 2006-11-01)
Аудио #1
Идентификатор : 1
Формат : AC-3
Формат/Информация : Audio Coding 3
Расширение режима : CM (complete main)
Параметр Endianness формата : Big
Идентификатор кодека : 2000
Продолжительность : 1 ч. 28 м.
Вид битрейта : Постоянный
Битрейт : 192 Кбит/сек
Каналы : 2 канала
Расположение каналов : Front: L R
Частота : 48,0 КГц
Битовая глубина : 16 бит
Метод сжатия : С потерями
Размер потока : 121 Мбайт (11%)
Выравнивание : Разделение по промежуткам
Продолжительность промежутка : 40 мс. (1,00 видеокадр)
Время предзагрузки промежутка : 500 мс.
Аудио #2
Идентификатор : 2
Формат : MPEG Audio
Версия формата : Version 1
Профиль формата : Layer 3
Режим : Joint stereo
Расширение режима : MS Stereo
Идентификатор кодека : 55
Идентификатор кодека/Подсказка : MP3
Продолжительность : 1 ч. 28 м.
Вид битрейта : Постоянный
Битрейт : 256 Кбит/сек
Каналы : 2 канала
Частота : 44,1 КГц
Метод сжатия : С потерями
Размер потока : 162 Мбайт (15%)
Выравнивание : Разделение по промежуткам
Продолжительность промежутка : 40 мс. (1,00 видеокадр)
Время предзагрузки промежутка : 500 мс.
Скриншоты:
     
Вне форума [Профиль] [ЛС]
Показать сообщения:    
Ответить на тему

Текущее время: Сегодня 01:13

Часовой пояс: GMT + 3



Вы не можете начинать темы
Вы не можете отвечать на сообщения
Вы не можете редактировать свои сообщения
Вы не можете удалять свои сообщения
Вы не можете голосовать в опросах
Вы не можете прикреплять файлы к сообщениям
Вы не можете скачивать файлы