Сегодня идет свободное скачивание без начисления Download

Финиковая косточка / Семя тамаринда / The Tamarind Seed (1974) DVDRip [H.264]

Ответить на тему
 
Автор
Сообщение

UndegraundMen ®

Стаж: 3 года 9 месяцев

Сообщений: 28329

Торрент-статистика

Пост 01-Ноя-2013 23:00

[Цитировать]

Финиковая косточка / Семя тамаринда / The Tamarind Seed (1974) DVDRip [H.264] - Год выпуска: 1974
Жанр: Драма, Мелодрама
Производство: Великобритания, США/Incorporated Television Company (ITC), Jewel Productions Ltd., Lorimar Productions, Pimlico Films
Описание фильма:
Во время отдыха на Карибах, британская шпионка влюбляется в своего русского коллегу, подумывающего о том, чтобы переманить ее на свою сторону. Но после сам решает «перебежать». В качестве аванса он предлагает разоблачить высокопоставленного британца, работающего на русских.
Режиссер: Блейк Эдвардс
Сценарий: Блейк Эдвардс, Эвелин Энтони
Продюсер: Кен Уэльс, Джонни Гудман
Композитор: Джон Бэрри
Актеры: Джули Эндрюс, Омар Шариф, Энтони Куэйл, Дэн О’Херлихи, Сильвия Симс, Оскар Хомолка, Брайан Маршалл, Дэвид Барон, Селия Баннерман, Роджер Дэнн
Продолжительность: 01:59:35
Качество видео: DVDRip
Перевод: Многоголосый закадровый

Дата мировой премьеры: 11 июля 1974
Видеокодек: MPEG-4 AVC/H.264
Битрейт видео: ~1902 Кбит/сек
Размер кадра: 720x304
Аудиокодек: AC3 2.0
Битрейт аудио: 192 Кбит/сек

Реценция с кинопоиска от Blaky:

Любовь неподсильна ни чему
Они не могут быть вместе. За ними следят, мешают… Один взрыв решил всё. Шаг от смерти — спас их любовь. Они чудом спаслись. И чудом сохранили свою любовь.
Прекрасный фильм о любви. которая невозможна. Финиковая косточка — предмет связи между двумя людьми. Косточка может изменить всю твою последующую жизнь.
Трепетный фильм, о счастье, и страданиях.
Моя оценка
10 из 10

Награды:

Британская академия, 1975 год
Номинации (1):
Лучшая женская роль второго плана (Сильвия Симс)

MediaInfo:

Общее
Уникальный идентификатор : 209186566423420551956575807485916462653 (0x9D5FDE0261B59FADB4C8195FD0DFBE3D)
Полное имя : H:\Downloads\Финиковая косточка.mkv
Формат : Matroska
Размер файла : 1,75 Гбайт
Продолжительность : 1 ч. 59 м.
Общий поток : 2096 Кбит/сек
Дата кодирования : UTC 2013-10-31 08:51:32
Программа кодирования : mkvmerge v6.0.0 ('Coming Up For Air') built on Jan 20 2013 09:52:00
Библиотека кодирования : libebml v1.3.0 + libmatroska v1.4.0
Видео
Идентификатор : 1
Формат : AVC
Формат/Информация : Advanced Video Codec
Профиль формата : [url=mailto:[email protected]][email protected][/url]
Параметр CABAC формата : Да
Параметр ReFrames формата : 8 кадров
Параметры GOP формата : M=4, N=31
Идентификатор кодека : V_MPEG4/ISO/AVC
Продолжительность : 1 ч. 59 м.
Битрейт : 1902 Кбит/сек
Ширина : 720 пикс.
Высота : 304 пикс.
Соотношение сторон : 2,35:1
Частота кадров : 25,000 кадр/сек
Цветовое пространство : YUV
Подвыборка цветности : 4:2:0
Битовая глубина : 8 бит
Тип развёртки : Прогрессивная
Бит/(Пиксели*Кадры) : 0.348
Размер потока : 1,56 Гбайт (89%)
Заголовок : Финиковая косточка
Библиотека кодирования : x264 core 125 r2208 d9d2288
Настройки программы : cabac=1 / ref=8 / deblock=1:-1:-1 / analyse=0x3:0x133 / me=umh / subme=9 / psy=1 / psy_rd=1.00:0.10 / mixed_ref=1 / me_range=32 / chroma_me=1 / trellis=2 / 8x8dct=1 / cqm=0 / deadzone=21,11 / fast_pskip=0 / chroma_qp_offset=-3 / threads=6 / lookahead_threads=1 / sliced_threads=0 / nr=0 / decimate=1 / interlaced=0 / bluray_compat=0 / constrained_intra=0 / bframes=3 / b_pyramid=2 / b_adapt=2 / b_bias=0 / direct=3 / weightb=1 / open_gop=0 / weightp=2 / keyint=250 / keyint_min=25 / scenecut=40 / intra_refresh=0 / rc_lookahead=60 / rc=2pass / mbtree=1 / bitrate=1902 / ratetol=1.0 / qcomp=0.60 / qpmin=10 / qpmax=51 / qpstep=4 / cplxblur=20.0 / qblur=0.5 / ip_ratio=1.40 / aq=1:1.00
Язык : English
Аудио
Идентификатор : 2
Формат : AC-3
Формат/Информация : Audio Coding 3
Расширение режима : CM (complete main)
Идентификатор кодека : A_AC3
Продолжительность : 1 ч. 59 м.
Вид битрейта : Постоянный
Битрейт : 192 Кбит/сек
Каналы : 2 канала
Расположение каналов : Front: L R
Частота : 48,0 КГц
Битовая глубина : 16 бит
Метод сжатия : С потерями
Размер потока : 164 Мбайт (9%)
Заголовок : Профессиональный многоголосый
Язык : Russian
Скриншоты:                    Время раздачи: с 13:00 до 01:00 по Москве (выходные круглосуточно), до 10 скачавших
Вне форума [Профиль] [ЛС]
Показать сообщения:    
Ответить на тему

Текущее время: Сегодня 16:37

Часовой пояс: GMT + 3



Вы не можете начинать темы
Вы не можете отвечать на сообщения
Вы не можете редактировать свои сообщения
Вы не можете удалять свои сообщения
Вы не можете голосовать в опросах
Вы не можете прикреплять файлы к сообщениям
Вы не можете скачивать файлы