Сегодня идет свободное скачивание без начисления Download

Крестное знамение / The Sign of the Cross (1932) DVDRip

Ответить на тему
 
Автор
Сообщение

UndegraundMen ®

Стаж: 3 года 9 месяцев

Сообщений: 28329

Торрент-статистика

Пост 03-Ноя-2013 11:00

[Цитировать]

Крестное знамение / The Sign of the Cross (1932) DVDRip- Год выпуска: 1932
Жанр: Драма, исторический
Описание фильма:
В этом фильме представлена жизнь античного Рима. В 64 г. н. э. император Нерон решил возложить ответственность за пожар в городе на христиан. Префект Марк увлечен милой девушкой-христианкой, Мерсией. Когда императрица Поппея понимает, что ее виды на Марка встречают преграду, она решает с Нероном предать всех христиан смерти.
Режиссер: Сесил Блаунт Де Милль
Актеры: Фредрик Марч, Элисса Лэнди, Клодетт Колбер, Чарльз Лоутон, Иэн Кит, Артур Хол, Гарри Бересфорд, Томми Конлон, Фердинанд Готтшалк, Вивиан Тобин
Продолжительность: 02:04:42
Качество видео: DVDRip
Перевод: Многоголосый закадровый

Видеокодек: Xvid
Битрейт видео: ~2201 Кбит/сек
Размер кадра: 640х480
Аудиокодек: AC3 2.0
Битрейт аудио: 192 Кбит/сек
Audio 1: AC3, 2 ch, 192 Кбит/сек - русский
Audio 2: AC3, 1 ch, 96 Кбит/сек - английский оригинальный

MediaInfo:

Общее
Полное имя : E:\Интересно\Крестное знамение\Крестное знамение (1932) DVDRip.avi
Формат : AVI
Формат/Информация : Audio Video Interleave
Профиль формата : OpenDML
Размер файла : 2,18 Гбайт
Продолжительность : 2 ч. 4 м.
Общий поток : 2507 Кбит/сек
Режиссёр : bm11
Программа кодирования : VirtualDubMod 1.5.10.2 (build 2540/release)
Правообладатель : allfilms
Видео
Идентификатор : 0
Формат : MPEG-4 Visual
Профиль формата : Advanced [email protected]
Параметр BVOP формата : 2
Параметр QPel формата : Нет
Параметр GMC формата : Без точки перехода
Параметр матрицы формата : Выборочная
Идентификатор кодека : XVID
Идентификатор кодека/Подсказка : XviD
Продолжительность : 2 ч. 4 м.
Битрейт : 2201 Кбит/сек
Ширина : 640 пикселей
Высота : 480 пикселей
Соотношение сторон : 4:3
Частота кадров : 23,976 кадра/сек
Цветовое пространство : YUV
Субдискретизация насыщенности : 4:2:0
Битовая глубина : 8 бит
Тип развёртки : Прогрессивная
Метод сжатия : С потерями
Бит/(Пиксели*Кадры) : 0.299
Размер потока : 1,92 Гбайт (88%)
Библиотека кодирования : XviD 65
Аудио #1
Идентификатор : 1
Формат : AC-3
Формат/Информация : Audio Coding 3
Расширение режима : CM (complete main)
Параметр Endianness формата : Big
Идентификатор кодека : 2000
Продолжительность : 2 ч. 4 м.
Вид битрейта : Постоянный
Битрейт : 192 Кбит/сек
Каналы : 2 канала
Расположение каналов : Front: L R
Частота : 48,0 КГц
Битовая глубина : 16 бит
Метод сжатия : С потерями
Задержка видео : 6 мс.
Размер потока : 171 Мбайт (8%)
Выравнивание : Разделение по промежуткам
Продолжительность промежутка : 42 мс. (1,00 видеокадр)
Время предзагрузки промежутка : 500 мс.
Аудио #2
Идентификатор : 2
Формат : AC-3
Формат/Информация : Audio Coding 3
Расширение режима : CM (complete main)
Параметр Endianness формата : Big
Идентификатор кодека : 2000
Продолжительность : 2 ч. 4 м.
Вид битрейта : Постоянный
Битрейт : 96,0 Кбит/сек
Каналы : 1 канал
Расположение каналов : Front: C
Частота : 48,0 КГц
Битовая глубина : 16 бит
Метод сжатия : С потерями
Задержка видео : 69 мс.
Размер потока : 85,6 Мбайт (4%)
Выравнивание : Разделение по промежуткам
Продолжительность промежутка : 42 мс. (1,00 видеокадр)
Время предзагрузки промежутка : 500 мс.
Скриншоты:
         
         
Время раздачи: С 10:00 до 23:00
Вне форума [Профиль] [ЛС]
Похожие темы
Форум Тема Автор Торрент Отв. Посл. сообщение
./templates/default/images/folder_dl.gif Обучающее видео Радислав Гандапас - Крест лидера [2013, Бизнес, лидерство, DVDRip, RUS] (Видеоурок) Omen
1 | 0

0 | 501

32

2014-11-03 17:00
Omen Последнее
Показать сообщения:    
Ответить на тему

Текущее время: Сегодня 10:57

Часовой пояс: GMT + 3



Вы не можете начинать темы
Вы не можете отвечать на сообщения
Вы не можете редактировать свои сообщения
Вы не можете удалять свои сообщения
Вы не можете голосовать в опросах
Вы не можете прикреплять файлы к сообщениям
Вы не можете скачивать файлы