Сегодня идет свободное скачивание без начисления Download

Белый, желтый, черный / Il bianco il giallo il nero (1975) DVDRip [H.264]

Ответить на тему
 
Автор
Сообщение

UndegraundMen ®

Стаж: 3 года 9 месяцев

Сообщений: 28329

Торрент-статистика

Пост 04-Ноя-2013 11:00

[Цитировать]

Белый, желтый, черный / Il bianco il giallo il nero (1975) DVDRip [H.264] - Год выпуска: 1975
Жанр: Комедия, Приключения, Вестерн
Производство: Италия, Испания, Франция/Filmel, Mundial Film, Tritone Cinematografica
Описание фильма:
Комедийный вестерн о том, как белый вор, японский псевдосамурай и шериф по прозвищу «Черный» освобождали украденный индейцами подарок японского императора и, заодно, пытались заработать.
Режиссер: Серджио Корбуччи
Сценарий: Марио Амендола, Рени Ассео, Луис Дж. де Блэйн
Актеры: Джулиано Джемма, Томас Милиан, Эли Уоллах, Мануэль де Блас, Жак Бертье, Романо Пуппо, Наццарено Дзамперла, Эди Бьяджетти, Хидео Саито, Фрэнк Нуйен
Продолжительность: 01:45:49
Качество видео: DVDRip
Перевод: Любительский одноголосый

Дата мировой премьеры: 17 января 1975
Видеокодек: MPEG-4 AVC/H.264
Битрейт видео: ~2173 Кбит/сек
Размер кадра: 720x304
Аудиокодек: AC3 2.0
Битрейт аудио: 192 Кбит/сек

MediaInfo:

Общее
Уникальный идентификатор : 221569103757019670771607622447241998669 (0xA6B0A83C23ECE07885058D5A0155B14D)
Полное имя : H:\Downloads\Белый, желтый, черный.mkv
Формат : Matroska
Размер файла : 1,75 Гбайт
Продолжительность : 1 ч. 45 м.
Общий поток : 2367 Кбит/сек
Дата кодирования : UTC 2013-11-03 23:00:15
Программа кодирования : mkvmerge v6.0.0 ('Coming Up For Air') built on Jan 20 2013 09:52:00
Библиотека кодирования : libebml v1.3.0 + libmatroska v1.4.0
Видео
Идентификатор : 1
Формат : AVC
Формат/Информация : Advanced Video Codec
Профиль формата : [url=mailto:[email protected]][email protected][/url]
Параметр CABAC формата : Да
Параметр ReFrames формата : 8 кадров
Параметры GOP формата : M=3, N=6
Идентификатор кодека : V_MPEG4/ISO/AVC
Продолжительность : 1 ч. 45 м.
Битрейт : 2173 Кбит/сек
Ширина : 720 пикс.
Высота : 304 пикс.
Соотношение сторон : 2,35:1
Частота кадров : 25,000 кадр/сек
Цветовое пространство : YUV
Подвыборка цветности : 4:2:0
Битовая глубина : 8 бит
Тип развёртки : Прогрессивная
Бит/(Пиксели*Кадры) : 0.397
Размер потока : 1,57 Гбайт (90%)
Заголовок : Bianco, il giallo, il nero
Библиотека кодирования : x264 core 125 r2208 d9d2288
Настройки программы : cabac=1 / ref=8 / deblock=1:-1:-1 / analyse=0x3:0x133 / me=umh / subme=9 / psy=1 / psy_rd=1.00:0.10 / mixed_ref=1 / me_range=32 / chroma_me=1 / trellis=2 / 8x8dct=1 / cqm=0 / deadzone=21,11 / fast_pskip=0 / chroma_qp_offset=-3 / threads=6 / lookahead_threads=1 / sliced_threads=0 / nr=0 / decimate=1 / interlaced=0 / bluray_compat=0 / constrained_intra=0 / bframes=3 / b_pyramid=2 / b_adapt=2 / b_bias=0 / direct=3 / weightb=1 / open_gop=0 / weightp=2 / keyint=250 / keyint_min=25 / scenecut=40 / intra_refresh=0 / rc_lookahead=60 / rc=2pass / mbtree=1 / bitrate=2173 / ratetol=1.0 / qcomp=0.60 / qpmin=10 / qpmax=51 / qpstep=4 / cplxblur=20.0 / qblur=0.5 / ip_ratio=1.40 / aq=1:1.00
Язык : Italian
Аудио
Идентификатор : 2
Формат : AC-3
Формат/Информация : Audio Coding 3
Расширение режима : CM (complete main)
Идентификатор кодека : A_AC3
Продолжительность : 1 ч. 45 м.
Вид битрейта : Постоянный
Битрейт : 192 Кбит/сек
Каналы : 2 канала
Расположение каналов : Front: L R
Частота : 48,0 КГц
Битовая глубина : 16 бит
Метод сжатия : С потерями
Размер потока : 145 Мбайт (8%)
Заголовок : Любительский одноголосый
Язык : Russian
Скриншоты:                    Время раздачи: с 13:00 до 01:00 по Москве (выходные круглосуточно), до 10 скачавших
Вне форума [Профиль] [ЛС]
Показать сообщения:    
Ответить на тему

Текущее время: Сегодня 17:39

Часовой пояс: GMT + 3



Вы не можете начинать темы
Вы не можете отвечать на сообщения
Вы не можете редактировать свои сообщения
Вы не можете удалять свои сообщения
Вы не можете голосовать в опросах
Вы не можете прикреплять файлы к сообщениям
Вы не можете скачивать файлы