Сегодня идет свободное скачивание без начисления Download

Дьявол во плоти / Le diable au corps (1947) DVDRip

Ответить на тему
 
Автор
Сообщение

UndegraundMen ®

Стаж: 3 года 9 месяцев

Сообщений: 28329

Торрент-статистика

Пост 05-Ноя-2013 11:00

[Цитировать]

Дьявол во плоти / Le diable au corps (1947) DVDRip- Год выпуска: 1947
Жанр: Драма, Мелодрама
Описание фильма:
Во время Первой мировой войны несовершеннолетний студент Франсуа Жобер влюбляется в Марту Гранжи, которая помолвлена с Жаком, солдатом, находящимся на фронте. Несмотря на все попытки Франсуа завоевать девушку, она выходит замуж за Жака. Но когда Франсуа и Марта снова встретились, оказывается, что их чувства необычайно сильны...
Режиссер: Клод Отан-Лара
Актеры: Жерар Филип, Мишлин Прель, Дэниз Грей, Жан Дебюкур, Жермен Ледуаен, Пало, Жан Лара, Мишель Франсуа, Ришар Франкёр, Джинн Перез, Жак Тати, Андре Бервиль, Эдмон Бошан, Чарльз Виссьер, Анри Готье, Рени Гарсия, Альбер Мишель, Альбер Реми, Жан Бертон, Жан Флёри, Леон Ларив, Жак Бове
Продолжительность: 01:57:11
Качество видео: DVDRip
Перевод: Одноголосый закадровый
Язык субтитров: Русские отключаемые
Вид субтитров: Отдельным файлом

Видеокодек: Xvid
Битрейт видео: ~1196 Кбит/сек
Размер кадра: 640х480
Аудиокодек: AC3 2.0
Битрейт аудио: 128 Кбит/сек
Audio 1: AC3, 2 ch, 320 Кбит/сек - русский
Audio 2: MP3, 2 ch, 128 Кбит/сек - французский оригинальный

MediaInfo:

Общее
Полное имя : E:\Интересно\Дьявол во плоти Le diable au corps\Дьявол во плоти (1947) DVDRip\Дьявол во плоти (1947) DVDRip.avi
Формат : AVI
Формат/Информация : Audio Video Interleave
Размер файла : 1,36 Гбайт
Продолжительность : 1 ч. 57 м.
Общий поток : 1659 Кбит/сек
Программа кодирования : VirtualDubModRus 1.5.10.2 (build 2542/release)
Библиотека кодирования : VirtualDubMod build 2542/release
Видео
Идентификатор : 0
Формат : MPEG-4 Visual
Профиль формата : Advanced [email protected]
Параметр BVOP формата : 2
Параметр QPel формата : Нет
Параметр GMC формата : Без точки перехода
Параметр матрицы формата : Default (H.263)
Идентификатор кодека : XVID
Идентификатор кодека/Подсказка : XviD
Продолжительность : 1 ч. 57 м.
Битрейт : 1196 Кбит/сек
Ширина : 640 пикселей
Высота : 480 пикселей
Соотношение сторон : 4:3
Частота кадров : 25,000 кадров/сек
Цветовое пространство : YUV
Субдискретизация насыщенности : 4:2:0
Битовая глубина : 8 бит
Тип развёртки : Прогрессивная
Метод сжатия : С потерями
Бит/(Пиксели*Кадры) : 0.156
Размер потока : 1003 Мбайт (72%)
Библиотека кодирования : XviD 1.2.1 (UTC 2008-12-04)
Аудио #1
Идентификатор : 1
Формат : AC-3
Формат/Информация : Audio Coding 3
Расширение режима : CM (complete main)
Параметр Endianness формата : Big
Идентификатор кодека : 2000
Продолжительность : 1 ч. 57 м.
Вид битрейта : Постоянный
Битрейт : 320 Кбит/сек
Каналы : 2 канала
Расположение каналов : Front: L R
Частота : 48,0 КГц
Битовая глубина : 16 бит
Метод сжатия : С потерями
Размер потока : 268 Мбайт (19%)
Выравнивание : Разделение по промежуткам
Продолжительность промежутка : 40 мс. (1,00 видеокадр)
Время предзагрузки промежутка : 500 мс.
Аудио #2
Идентификатор : 2
Формат : MPEG Audio
Версия формата : Version 1
Профиль формата : Layer 3
Идентификатор кодека : 55
Идентификатор кодека/Подсказка : MP3
Продолжительность : 1 ч. 57 м.
Вид битрейта : Постоянный
Битрейт : 128 Кбит/сек
Каналы : 2 канала
Частота : 44,1 КГц
Метод сжатия : С потерями
Задержка видео : 26 мс.
Размер потока : 107 Мбайт (8%)
Выравнивание : Разделение по промежуткам
Продолжительность промежутка : 40 мс. (1,00 видеокадр)
Время предзагрузки промежутка : 500 мс.
Библиотека кодирования : LAME3.92
Скриншоты:
       
Вне форума [Профиль] [ЛС]
Показать сообщения:    
Ответить на тему

Текущее время: Сегодня 17:36

Часовой пояс: GMT + 3



Вы не можете начинать темы
Вы не можете отвечать на сообщения
Вы не можете редактировать свои сообщения
Вы не можете удалять свои сообщения
Вы не можете голосовать в опросах
Вы не можете прикреплять файлы к сообщениям
Вы не можете скачивать файлы