Сегодня идет свободное скачивание без начисления Download

Дикий, дикий Запад / Дикий, дикий Вест / Wild Wild West (Барри Зонненфельд / Barry Sonnenfeld) [1999, Фантастика, боевик, комедия, вестерн, BDRip] [AVO] (П.Санаев)

Ответить на тему
 
Автор
Сообщение

maxkiller ®

Пол:

Стаж: 3 года 10 месяцев

Сообщений: 282

Торрент-статистика

Пост 06-Ноя-2013 17:43

[Цитировать]

Дикий, дикий Запад / Дикий, дикий Вест / Wild Wild West-
Год выпуска: 1999
Выпущено: США / Warner Bros. Pictures
Жанр: фантастика, боевик, комедия, вестерн
Продолжительность: 01:46:00
Перевод: Авторский (одноголосный)[П.Санаев]
Субтитры: нет
Режиссер: Барри Зонненфельд / Barry Sonnenfeld-В ролях:
Уилл Смит (Capt. James West), Кевин Клайн (U.S. Marshal Artemus Gordon / Ulysses S. Grant), Кеннет Брэна (Dr. Arliss Loveless), Сальма Хайек (Rita Escobar), М. Эммет Уолш (Coleman), Тед Левайн (General «Bloodbath» McGrath), Фредерик ван дер Вал (Amazonia), Музетта Вандер (Munitia), София Энг (Miss Lippenrieder), Бай Лин (Miss East), Гарсель Бове (Belle)
Описание: Два суперагента 70-х годов позапрошлого века, располагающие технологическими штучками, спасают президента США Гранта от злодея-изобретателя Лавлэйса, ведущего борьбу за обладание южными штатами. Обозленный на весь мир, безногий калека при отсутствии детородного органа окружил себя целым гаремом красавиц, чем, вероятно, постоянно поддерживал в себе накал ненависти.
Один из суперагентов — лихой и обаятельный чернокожий стрелок Джим Уэст, а другой — Артемус Гордон, белый джентльмен с манерами англичанина. На их стороне и знойная красотка Рита, плененная гигантским механическим пауком.

IMDB | КиноПоиск |
Качество: BDRip
Формат: AVI
Видео кодек: XviD
Аудио кодек: AC3
Видео: 688x384 (1.79:1), 23.976 fps, XviD build 73 ~1512 kbps avg, 0.24 bit/pixel
Аудио: 48 kHz, AC3 Dolby Digital, 3/2 (L,C,R,l,r) + LFE ch, ~448.00 kbps avg

MI

General
Complete name : E:INTERNETWild Wild West.1999.BDRip.[AVO]_[SANAEV].avi
Format : AVI
Format/Info : Audio Video Interleave
File size : 1.46 GiB
Duration : 1h 46mn
Overall bit rate : 1 969 Kbps
Writing application : VirtualDubMod 1.5.10.3 (build 2550/release)
Writing library : VirtualDubMod build 2550/release
Video
ID : 0
Format : MPEG-4 Visual
Format profile : Advanced [email protected]
Format settings, BVOP : Yes
Format settings, QPel : No
Format settings, GMC : No warppoints
Format settings, Matrix : Custom
Codec ID : XVID
Codec ID/Hint : XviD
Duration : 1h 46mn
Bit rate : 1 512 Kbps
Width : 688 pixels
Height : 384 pixels
Display aspect ratio : 16:9
Frame rate : 23.976 fps
Color space : YUV
Chroma subsampling : 4:2:0
Bit depth : 8 bits
Scan type : Progressive
Bits/(Pixel*Frame) : 0.239
Stream size : 1.12 GiB (77%)
Writing library : XviD 73
Audio
ID : 1
Format : AC-3
Format/Info : Audio Coding 3
Mode extension : CM (complete main)
Codec ID : 2000
Duration : 1h 46mn
Bit rate mode : Constant
Bit rate : 448 Kbps
Channel(s) : 6 channels
Channel positions : Front: L C R, Side: L R, LFE
Sampling rate : 48.0 KHz
Bit depth : 16 bits
Stream size : 340 MiB (23%)
Alignment : Split accross interleaves
Interleave, duration : 42 ms (1.00 video frame)
Interleave, preload duration : 500 ms

Скриншоты

     
Вне форума [Профиль] [ЛС]
Показать сообщения:    
Ответить на тему

Текущее время: Сегодня 14:55

Часовой пояс: GMT + 3



Вы не можете начинать темы
Вы не можете отвечать на сообщения
Вы не можете редактировать свои сообщения
Вы не можете удалять свои сообщения
Вы не можете голосовать в опросах
Вы не можете прикреплять файлы к сообщениям
Вы не можете скачивать файлы