Сегодня идет свободное скачивание без начисления Download

Привидения по-итальянски / Questi fantasmi (1968) DVDRip

Ответить на тему
 
Автор
Сообщение

UndegraundMen ®

Стаж: 3 года 9 месяцев

Сообщений: 28329

Торрент-статистика

Пост 07-Ноя-2013 11:01

[Цитировать]

Привидения по-итальянски / Questi fantasmi (1968) DVDRip- Год выпуска: 1968
Страна: Италия, Франция
Жанр: Комедия
Описание фильма:
Женившись на красавице Марии, музыкант Паскуале страдает, что он не может обеспечить ей нормальное существование из-за проблем с работой. Но ему на помощь приходит давний поклонник Марии, который решает остаться незамеченным и помогает им арендовать дом с привидениями….
Режиссер: Ренато Кастеллани
Актеры: Софи Лорен, Витторио Гассман, Марио Адорф, Альдо Джуффре, Маргарет Ли, Френсис Де Вулф, Аугуста Мерола, Пьера Дельи Эспости, Джованни Таралло
Продолжительность: 01:40:12
Качество видео: DVDRip
Перевод: Многоголосый закадровый
Язык субтитров: Русские отключаемые
Вид субтитров: Отдельным файлом

Видеокодек: Xvid
Битрейт видео: ~1755 Кбит/сек
Размер кадра: 672x368
Аудиокодек: MP3, 2 ch
Битрейт аудио: 128 Кбит/сек
Audio 1: MP3, 2 ch, 128 Кбит/сек - русский
Audio 2: MP3, 2 ch, 128 Кбит/сек - итальянский оригинальный

MediaInfo:

Общее
Полное имя : E:\Интересно\Привидения по-итальянски\Привидения по-итальянски (1968) DVDRip\Questi Fantasmi Rus.avi
Формат : AVI
Формат/Информация : Audio Video Interleave
Размер файла : 1,42 Гбайт
Продолжительность : 1 ч. 40 м.
Общий поток : 2026 Кбит/сек
Программа кодирования : VirtualDubModRus 1.5.10.2 (build 2542/release)
Библиотека кодирования : VirtualDubMod build 2542/release
Видео
Идентификатор : 0
Формат : MPEG-4 Visual
Профиль формата : Advanced [email protected]
Параметр BVOP формата : 1
Параметр QPel формата : Нет
Параметр GMC формата : Без точки перехода
Параметр матрицы формата : Выборочная
Идентификатор кодека : XVID
Идентификатор кодека/Подсказка : XviD
Продолжительность : 1 ч. 40 м.
Битрейт : 1755 Кбит/сек
Ширина : 672 пикселя
Высота : 368 пикселей
Соотношение сторон : 1,85:1
Частота кадров : 25,000 кадров/сек
Цветовое пространство : YUV
Субдискретизация насыщенности : 4:2:0
Битовая глубина : 8 бит
Тип развёртки : Прогрессивная
Метод сжатия : С потерями
Бит/(Пиксели*Кадры) : 0.284
Размер потока : 1,23 Гбайт (87%)
Библиотека кодирования : XviD 1.2.1 (UTC 2008-12-04)
Аудио #1
Идентификатор : 1
Формат : MPEG Audio
Версия формата : Version 1
Профиль формата : Layer 3
Режим : Joint stereo
Расширение режима : MS Stereo
Идентификатор кодека : 55
Идентификатор кодека/Подсказка : MP3
Продолжительность : 1 ч. 40 м.
Вид битрейта : Постоянный
Битрейт : 128 Кбит/сек
Каналы : 2 канала
Частота : 48,0 КГц
Метод сжатия : С потерями
Размер потока : 91,7 Мбайт (6%)
Выравнивание : Разделение по промежуткам
Продолжительность промежутка : 40 мс. (1,00 видеокадр)
Время предзагрузки промежутка : 500 мс.
Аудио #2
Идентификатор : 2
Формат : MPEG Audio
Версия формата : Version 1
Профиль формата : Layer 3
Режим : Joint stereo
Расширение режима : MS Stereo
Идентификатор кодека : 55
Идентификатор кодека/Подсказка : MP3
Продолжительность : 1 ч. 40 м.
Вид битрейта : Постоянный
Битрейт : 128 Кбит/сек
Каналы : 2 канала
Частота : 48,0 КГц
Метод сжатия : С потерями
Размер потока : 91,7 Мбайт (6%)
Выравнивание : Разделение по промежуткам
Продолжительность промежутка : 40 мс. (1,00 видеокадр)
Время предзагрузки промежутка : 500 мс.
Скриншоты:
             
Вне форума [Профиль] [ЛС]
Показать сообщения:    
Ответить на тему

Текущее время: Сегодня 17:32

Часовой пояс: GMT + 3



Вы не можете начинать темы
Вы не можете отвечать на сообщения
Вы не можете редактировать свои сообщения
Вы не можете удалять свои сообщения
Вы не можете голосовать в опросах
Вы не можете прикреплять файлы к сообщениям
Вы не можете скачивать файлы