Сегодня идет свободное скачивание без начисления Download

Спартак / Spartacus (1960) BDRip [1080p] [50th Anniversary Edition]

Ответить на тему
 
Автор
Сообщение

UndegraundMen ®

Стаж: 3 года 9 месяцев

Сообщений: 28329

Торрент-статистика

Пост 07-Ноя-2013 23:01

[Цитировать]

Спартак / Spartacus (1960) BDRip [1080p] [50th Anniversary Edition]- Год выпуска: 1960
Производство: США / Bryna Productions
Жанр: драма, приключения, биография, история
Перевод: Дублированный, Профессиональный (Многоголосый), Профессиональный (Двухголосый), Авторский (Одноголосый)
Субтитры: Вшитые отключаемые
Язык субтитров: Русский (Full), Английский (Full)-Дата мировой премьеры: 6 октября 1960
Дата российской премьеры: N/A
Дата выхода DVD: 18 декабря 2008, «Мьюзик-Трейд»
Дата выхода Blu-Ray: N/A-Режиссер: Стэнли Кубрик
Актеры: Кирк Дуглас, Лоуренс Оливье, Джин Симмонс, Чарльз Лотон, Питер Устинов, Джон Гэвин, Нина Фох, Джон Айрлэнд, Херберт Лом, Джон Долл, Чарльз МакГроу, Джоэнна Барнс, Харольд Стоун, Вуди Строд, Питер Брокко, Пол Ламберт, Роберт Дж. Вилке, Ник Дэннис, Джон Хойт, Фредерик Уорлок, Тони Кертис, Артур Батанидес-Описание фильма: Легендарная история о восстании рабов под предводительством бесстрашного и могучего гладиатора Спартака. Он был рабом из Фракии. Его сила и стать привлекли внимание владельца школы гладиаторов Лентула, и вскоре Спартак отправился за новым хозяином в Капую. Он одерживает победы в боях. Но хочет только одного – свободы. И однажды вместе с товарищами по несчастью Спартак бежит из своей темницы. Гладиаторы разбивают военный лагерь и принимают в свою армию беглых рабов. Вскоре об их набегах на дома богатых римлян узнают в Сенате. Армии Спартака объявляют войну солдаты Юлия Цезаря...- -Продолжительность: 03:16:37
Качество видео: BDRip [1080p]-Видео: MPEG-4 AVC/H.264; 1920х1080; 11.2 Mbps; [url=mailto:[email protected]][email protected][/url]; 23.976 fps
Аудио#1: [RUS]: AC3 2.0; 192.00 kbps; 48.0 kHz; 16-bits [СССР]
Аудио#2: [RUS]: AC3 5.1; 448.00 kbps; 48.0 kHz; 16-bits [СуперБит]
Аудио#3: [RUS]: AC3 5.1; 448.00 kbps; 48.0 kHz; 16-bits [Гланц и Королёва]
Аудио#4: [RUS]: AC3 5.1; 448.00 kbps; 48.0 kHz; 16-bits [Живов]
Аудио#5: [ENG]: AC3 5.1; 448.00 kbps; 48.0 kHz; 16-bits [Оригинал]
Дополнительно: Сохранены оригинальные чаптеры как на Blu-ray.

Знаете ли вы, что...

  • Стэнли Кубрик взялся за постановку картины после того, как исполнитель главной роли Кирк Дуглас повздорил с режиссером Энтони Манном. По словам Питера Устинова, сцена на соляных копях была единственной, которую успел снять Манн.
  • От постановки отказался Дэвид Лин, а Лоуренс Оливье не захотел совмещать актерские и режиссерские функции.
  • Будучи сопродюсером фильма, Кирк Дуглас сумел настоять на том, чтобы к работе над картиной были привлечены находившиеся в то время в «черном списке» кинодраматург Далтон Трамбо и актер Питер Брокко.
  • Кубрику не был предоставлен контроль над сценарием, который он считал «глупым морализаторством». С тех пор Кубрик полностью контролировал производство своих картин.
    Из 167 дней, потребовавшихся Кубрику для съемок фильма, шесть недель ушло на постановку масштабных боевых сцен, в которых 8500 статистов воссоздавали сражения между римскими войсками и армией Спартака.
  • От роли Варинии отказались Ингрид Бергман, Жанна Моро, Эльза Мартинелли и Джин Симмонс. В итоге ее должна была сыграть Сабина Бетманн, однако, когда Кубрик пришел в проект, он уволил эту актрису и вновь пригласил Симмонс, которая на сей раз приняла его предложение.
  • Сценарист Далтон Трамбо хотел, чтобы роль пирата была отдана Орсону Уэллсу. Но ее в итоге исполнил Герберт Лом.
  • Чтобы привлечь звезд на роли второго плана, Кирк Дуглас давал им разные варианты сценария, в которых образы их героев выглядели наиболее предпочтительно.
  • По слухам, Тони Кертис, уставший от долгих и изматывающих съемок, спросил Джин Симмонс: «С кем нужно переспать, чтобы убраться с этой картины?». На это Симмонс ему ответила: «Когда узнаешь, дай мне знать».
  • Оператор Расселл Метти покинул съемки, жалуясь на то, что Кубрик не дает ему работать. Когда же Метти все-таки вернулся на съемочную площадку, Кубрик продолжал на него давить, да еще взял на себя большую часть операторской работы. Метти был этим очень недоволен и даже хотел, чтобы его имя изъяли из титров.
  • В фильме Спартак был рабом с рождения. На самом деле он служил во вспомогательных войсках римской армии, дезертировал, но был пойман и продан в рабство. Об этом было известно Стэнли Кубрику, но он счёл такой сюжетный поворот недостаточно героическим.
  • Юлий Цезарь не командовал гарнизоном Рима, и в принципе не мог командовать, так как на момент событий фильма в Риме попросту не было гарнизона.
  • В реальности Красс не горел желанием преследовать армию Спартака. Считается, что решающее сражение началось с попытки рабов заманить римлян в ловушку. Кроме того, Красс фактически выиграл битву в одиночку — роль Помпея ограничилась уничтожением 5000 бежавших с поля боя рабов.
  • События сцены «Я — Спартак!», как и всех последующих, являются выдумкой сценаристов и не имеют под собой исторического основания: большинство источников сходится в том, что Спартак погиб в бою.
  • На самом деле Спартак был лишь одним из руководителей восставших рабов, а не единоличным лидером, как показано в фильме.
  • Фильм был повторно выпущен в советский прокат в 1984 году, и его посмотрели по 28,2 млн. зрителей на серию при тираже 1171 копия. Общее количество проданных билетов на «Спартак» в СССР составило (с учётом двух серий) 178,4 млн. Даже при средней цене в пределах 30 коп. кассовые сборы фильма в советском прокате могли исчисляться суммой 53,5 млн. рублей, что по тогдашнему официальному валютному курсу равнялось бы $86,3 млн.
  • Фильм занимает по итогам первого выпуска в советский кинопрокат 5-е место по посещаемости среди зарубежных лент.
  • Фильм снят по одноименному роману Говарда Фаста.
Награды и номинации:


MediaInfo:

Код:
General
Unique ID                                : 229022086909135722862756969386357299861 (0xAC4C0CACB747A0BA87E5071224A41A95)
Complete name                            : D:\Spartak.1960.BDRip.720p.mkv
Format                                   : Matroska
Format version                           : Version 4 / Version 2
File size                                : 18.5 GiB
Duration                                 : 3h 16mn
Overall bit rate                         : 13.4 Mbps
Movie name                               : Спартак (1960) [lb4nnm]
Encoded date                             : UTC 2013-11-06 08:16:26
Writing application                      : mkvmerge v6.5.0 ('Isn't she lovely') built on Oct 20 2013 12:50:05
Writing library                          : libebml v1.3.0 + libmatroska v1.4.1
Attachment                               : Yes
Video
ID                                       : 1
Format                                   : AVC
Format/Info                              : Advanced Video Codec
Format profile                           : [url=mailto:[email protected]][email protected][/url]
Format settings, CABAC                   : Yes
Format settings, ReFrames                : 2 frames
Format settings, GOP                     : M=3, N=24
Codec ID                                 : V_MPEG4/ISO/AVC
Duration                                 : 3h 16mn
Bit rate                                 : 11.2 Mbps
Width                                    : 1 920 pixels
Height                                   : 1 080 pixels
Display aspect ratio                     : 16:9
Frame rate mode                          : Constant
Frame rate                               : 23.976 fps
Color space                              : YUV
Chroma subsampling                       : 4:2:0
Bit depth                                : 8 bits
Scan type                                : Progressive
Bits/(Pixel*Frame)                       : 0.225
Stream size                              : 15.4 GiB (83%)
Title                                    : Спартак (1960) [lb4nnm]
Writing library                          : x264 core
Language                                 : English
Default                                  : Yes
Forced                                   : No
Color primaries                          : BT.709
Transfer characteristics                 : BT.709
Matrix coefficients                      : BT.709
Audio #1
ID                                       : 2
Format                                   : AC-3
Format/Info                              : Audio Coding 3
Mode extension                           : CM (complete main)
Format settings, Endianness              : Big
Codec ID                                 : A_AC3
Duration                                 : 3h 16mn
Bit rate mode                            : Constant
Bit rate                                 : 192 Kbps
Channel count                            : 2 channels
Channel positions                        : Front: L R
Sampling rate                            : 48.0 KHz
Bit depth                                : 16 bits
Compression mode                         : Lossy
Stream size                              : 270 MiB (1%)
Title                                    : Дубляж (СССР) [VHS]
Language                                 : Russian
Default                                  : Yes
Forced                                   : No
Audio #2
ID                                       : 3
Format                                   : AC-3
Format/Info                              : Audio Coding 3
Mode extension                           : CM (complete main)
Format settings, Endianness              : Big
Codec ID                                 : A_AC3
Duration                                 : 3h 16mn
Bit rate mode                            : Constant
Bit rate                                 : 448 Kbps
Channel count                            : 6 channels
Channel positions                        : Front: L C R, Side: L R, LFE
Sampling rate                            : 48.0 KHz
Bit depth                                : 16 bits
Compression mode                         : Lossy
Stream size                              : 630 MiB (3%)
Title                                    : Многоголосый [СуперБит]
Language                                 : Russian
Default                                  : No
Forced                                   : No
Audio #3
ID                                       : 4
Format                                   : AC-3
Format/Info                              : Audio Coding 3
Mode extension                           : CM (complete main)
Format settings, Endianness              : Big
Codec ID                                 : A_AC3
Duration                                 : 3h 16mn
Bit rate mode                            : Constant
Bit rate                                 : 448 Kbps
Channel count                            : 6 channels
Channel positions                        : Front: L C R, Side: L R, LFE
Sampling rate                            : 48.0 KHz
Bit depth                                : 16 bits
Compression mode                         : Lossy
Stream size                              : 630 MiB (3%)
Title                                    : Двухголосый [Гланц и Королёва]
Language                                 : Russian
Default                                  : No
Forced                                   : No
Audio #4
ID                                       : 5
Format                                   : AC-3
Format/Info                              : Audio Coding 3
Mode extension                           : CM (complete main)
Format settings, Endianness              : Big
Codec ID                                 : A_AC3
Duration                                 : 3h 16mn
Bit rate mode                            : Constant
Bit rate                                 : 448 Kbps
Channel count                            : 6 channels
Channel positions                        : Front: L C R, Side: L R, LFE
Sampling rate                            : 48.0 KHz
Bit depth                                : 16 bits
Compression mode                         : Lossy
Stream size                              : 630 MiB (3%)
Title                                    : Авторский [Живов]
Language                                 : Russian
Default                                  : No
Forced                                   : No
Audio #5
ID                                       : 6
Format                                   : AC-3
Format/Info                              : Audio Coding 3
Mode extension                           : CM (complete main)
Format settings, Endianness              : Big
Codec ID                                 : A_AC3
Duration                                 : 3h 16mn
Bit rate mode                            : Constant
Bit rate                                 : 448 Kbps
Channel count                            : 6 channels
Channel positions                        : Front: L C R, Side: L R, LFE
Sampling rate                            : 48.0 KHz
Bit depth                                : 16 bits
Compression mode                         : Lossy
Stream size                              : 630 MiB (3%)
Title                                    : [Оригинал]
Language                                 : English
Default                                  : No
Forced                                   : No
Text #1
ID                                       : 7
Format                                   : PGS
Muxing mode                              : zlib
Codec ID                                 : S_HDMV/PGS
Codec ID/Info                            : The same subtitle format used on BDs/HD-DVDs
Title                                    : [Full]
Language                                 : Russian
Default                                  : No
Forced                                   : No
Text #2
ID                                       : 8
Format                                   : PGS
Muxing mode                              : zlib
Codec ID                                 : S_HDMV/PGS
Codec ID/Info                            : The same subtitle format used on BDs/HD-DVDs
Title                                    : [Full]
Language                                 : English
Default                                  : No
Forced                                   : No
Menu
00:00:00.000                             : en:(01)00:00:00:000
00:07:44.547                             : en:(02)00:07:44:547
00:14:04.969                             : en:(03)00:14:04:969
00:19:04.935                             : en:(04)00:19:04:935
00:31:55.872                             : en:(05)00:31:55:872
00:43:12.840                             : en:(06)00:43:12:840
00:53:02.971                             : en:(07)00:53:02:971
01:01:46.661                             : en:(08)01:01:46:661
01:20:17.979                             : en:(09)01:20:17:979
01:41:46.391                             : en:(10)01:41:46:391
01:47:55.343                             : en:(11)01:47:55:343
01:58:17.757                             : en:(12)01:58:17:757
02:10:43.293                             : en:(13)02:10:43:293
02:30:01.993                             : en:(14)02:30:01:993
03:00:56.345                             : en:(15)03:00:56:345
03:10:08.897                             : en:(16)03:10:08:897
Скриншоты:-          
Вне форума [Профиль] [ЛС]
Показать сообщения:    
Ответить на тему

Текущее время: Сегодня 09:41

Часовой пояс: GMT + 3



Вы не можете начинать темы
Вы не можете отвечать на сообщения
Вы не можете редактировать свои сообщения
Вы не можете удалять свои сообщения
Вы не можете голосовать в опросах
Вы не можете прикреплять файлы к сообщениям
Вы не можете скачивать файлы