Сегодня идет свободное скачивание без начисления Download

Анализируй это / Analyze This (Харольд Рэмис / Harold Ramis) [1999, комедия, криминал, BDRip] [AVO] (П.Санаев) + [DUB]

Ответить на тему
 
Автор
Сообщение

maxkiller ®

Пол:

Стаж: 4 года

Сообщений: 279

Торрент-статистика

Пост 07-Ноя-2013 23:06

[Цитировать]

Анализируй это / Analyze This

Год выпуска: 1999
Страна: США, Австралия
Жанр: комедия, криминал
Продолжительность: 01:43:29
Перевод #1: Авторский (одноголосный) [П.Санаев]
Перевод #2: Профессиональный (дублированный)
Субтитры: нет
Режиссер: Харольд Рэмис
В ролях: Роберт Де Ниро, Билли Кристал, Лайза Кудроу, Джо Витерелли, Билл Мэйси, Лео Росси, Чазз Пальминтери, Кайл Сабихи, Ребекка Шалл, Молли Шеннон, Макс Каселла, Пэт Купер, Ричард С. Кастеллано, Джимми Рэй Уикс, Элизабет Бракко, Тони Дарроу
Описание: Пол Витти — влиятельный нью-йоркский мафиози на грани нервного срыва. Все гангстеры в шоке: как помочь своему чокнутому боссу? Бен Соболь — обычный психоаналитик. У него есть всего несколько дней на то, чтобы помочь крестному отцу справиться с депрессией.

Качество: BDRip [Исх. Blu-ray 1080p]
Формат: AVI
Видео кодек: XviD
Аудио кодек: AC3
Видео: 704x400 (1.76:1), 23.976 fps, XviD build 73 ~1555 kbps avg, 0.23 bit/pixel
Аудио #1: 48 kHz, AC3 Dolby Digital, 2/0 (L,R) ch, ~192.00 kbps avg [AVO]
Аудио #2: 48 kHz, AC3 Dolby Digital, 2/0 (L,R) ch, ~192.00 kbps avg [DUB]

MI

General
Complete name : E:\INTERNET\Analyze This.1999.BDRip.AVO[Sanaev]+[DUB].km.avi
Format : AVI
Format/Info : Audio Video Interleave
File size : 1.41 GiB
Duration : 1h 43mn
Overall bit rate : 1 955 Kbps
Writing application : VirtualDubMod 1.5.10.3 (build 2550/release)
Writing library : VirtualDubMod build 2550/release
Video
ID : 0
Format : MPEG-4 Visual
Format profile : Advanced [email protected]
Format settings, BVOP : Yes
Format settings, QPel : No
Format settings, GMC : No warppoints
Format settings, Matrix : Custom
Codec ID : XVID
Codec ID/Hint : XviD
Duration : 1h 43mn
Bit rate : 1 556 Kbps
Width : 704 pixels
Height : 400 pixels
Display aspect ratio : 16:9
Frame rate : 23.976 fps
Color space : YUV
Chroma subsampling : 4:2:0
Bit depth : 8 bits
Scan type : Progressive
Bits/(Pixel*Frame) : 0.230
Stream size : 1.12 GiB (80%)
Writing library : XviD 73
Audio #1
ID : 1
Format : AC-3
Format/Info : Audio Coding 3
Mode extension : CM (complete main)
Codec ID : 2000
Duration : 1h 43mn
Bit rate mode : Constant
Bit rate : 192 Kbps
Channel(s) : 2 channels
Channel positions : Front: L R
Sampling rate : 48.0 KHz
Bit depth : 16 bits
Stream size : 142 MiB (10%)
Alignment : Split accross interleaves
Interleave, duration : 42 ms (1.00 video frame)
Interleave, preload duration : 500 ms
Audio #2
ID : 2
Format : AC-3
Format/Info : Audio Coding 3
Mode extension : CM (complete main)
Codec ID : 2000
Duration : 1h 43mn
Bit rate mode : Constant
Bit rate : 192 Kbps
Channel(s) : 2 channels
Channel positions : Front: L R
Sampling rate : 48.0 KHz
Bit depth : 16 bits
Stream size : 142 MiB (10%)
Alignment : Split accross interleaves
Interleave, duration : 42 ms (1.00 video frame)
Interleave, preload duration : 500 ms

Скриншоты

       
Вне форума [Профиль] [ЛС]
Похожие темы
Форум Тема Автор Торрент Отв. Посл. сообщение
./templates/default/images/folder_dl.gif Компьютерная литература Уэс Маккинни | Python и анализ данных (2015) [DJVU] Omen
1 | 0

0 | 247

11

2015-08-10 14:47
Omen Последнее
./templates/default/images/folder_dl.gif Фильмы 2011-2016 Спектральный анализ / Spectral (Ник Матьё / Nic Mathieu) [2016 г., фантастика, боевик, триллер, WEBRip-AVC] MVO (MUZOBOZ) Omen
1 | 0

0 | 103

5

2016-03-09 15:53
Omen Последнее
./templates/default/images/folder_dl.gif Обучающее видео Специалист | Microsoft Excel 2013/2010. Уровень 3. Анализ и визуализация данных (2014) PCRec moralis
1 | 0

0 | 258

11

2016-03-29 23:00
moralis Последнее
Показать сообщения:    
Ответить на тему

Текущее время: Сегодня 03:09

Часовой пояс: GMT + 3



Вы не можете начинать темы
Вы не можете отвечать на сообщения
Вы не можете редактировать свои сообщения
Вы не можете удалять свои сообщения
Вы не можете голосовать в опросах
Вы не можете прикреплять файлы к сообщениям
Вы не можете скачивать файлы