Сегодня идет свободное скачивание без начисления Download

Скажите ей, что я ее люблю / Dites-lui que je l\'aime (1977) DVDRip

Ответить на тему
 
Автор
Сообщение

UndegraundMen ®

Стаж: 3 года 9 месяцев

Сообщений: 28329

Торрент-статистика

Пост 08-Ноя-2013 23:00

[Цитировать]

Скажите ей, что я ее люблю / Dites-lui que je l'aime (1977) DVDRip- Год выпуска: 1977
Производство: Франция
Жанр: Детектив, Драма, Триллер--Описание фильма:
Экранизация романа Патриции Хайсмит "Странный тип".
Молодой человек Давид Мартино одержим страстью к женщине по имени Лиза. Он не хочет знать о том, что Лиза за мужем за другим. Его не может остановить и то, что недавно она родила сына. Давид считает, что они созданы друг для друга. Он пишет Лизе письма, полные любви. Он начинает преследовать ее. Он сходит с ума от этой дикой, невероятной любви. И однажды страсть приводит его к краю пропасти.--Режиссер: Клод Миллер
Актеры: Жерар Депардье, Миу-Миу, Клод Пьеплю, Жак Дени, Доминик Лаффен, Кристиан Клавье, Ксавьер Сен-Макари, Вероник Сильвер, Анник Ле Моаль, Жозиан Баласко--Продолжительность: 01:41:06
Качество видео: DVDRip
Перевод: Многоголосый закадровый-- --Видеокодек: DivX 5
Битрейт видео: ~1013 Кбит/сек
Размер кадра: 656 x 424
Аудио 1: 44.100 kHz, MPEG Layer 3, 2 ch, ~128 Кбит/сек, русский
Аудио 2: 48 kHz, MPEG Layer 3, 2 ch, ~96,0 Кбит/сек, франция-

MediaInfo

Код:
Общее
Формат                                   : AVI
Формат/Информация                        : Audio Video Interleave
Размер файла                             : 905 Мбайт
Продолжительность                        : 1 ч. 41 м.
Общий поток                              : 1251 Кбит/сек
Программа кодирования                    : VirtualDubMod 1.5.10.2 (build 2542/release)
Библиотека кодирования                   : VirtualDubMod build 2542/release
Видео
Идентификатор                            : 0
Формат                                   : MPEG-4 Visual
Параметр BVOP формата                    : Да
Параметр QPel формата                    : Нет
Параметр GMC формата                     : Без точки перехода
Параметр матрицы формата                 : Default (H.263)
Идентификатор кодека                     : DX50
Идентификатор кодека/Подсказка           : DivX 5
Продолжительность                        : 1 ч. 41 м.
Битрейт                                  : 1013 Кбит/сек
Ширина                                   : 656 пикселей
Высота                                   : 424 пикселя
Соотношение сторон                       : 3:2
Частота кадров                           : 25,000 кадров/сек
Цветовое пространство                    : YUV
Субдискретизация насыщенности            : 4:2:0
Битовая глубина                          : 8 бит
Тип развёртки                            : Прогрессивная
Метод сжатия                             : С потерями
Бит/(Пиксели*Кадры)                      : 0.146
Размер потока                            : 732 Мбайт (81%)
Библиотека кодирования                   : DivX 5.2.1 (WaffleDay) (UTC 2004-09-08)
Аудио #1
Идентификатор                            : 1
Формат                                   : MPEG Audio
Версия формата                           : Version 1
Профиль формата                          : Layer 3
Идентификатор кодека                     : 55
Идентификатор кодека/Подсказка           : MP3
Продолжительность                        : 1 ч. 41 м.
Вид битрейта                             : Постоянный
Битрейт                                  : 128 Кбит/сек
Каналы                                   : 2 канала
Частота                                  : 44,1 КГц
Метод сжатия                             : С потерями
Размер потока                            : 92,6 Мбайт (10%)
Выравнивание                             : Разделение по промежуткам
Продолжительность промежутка             : 40  мс. (1,00 видеокадр)
Время предзагрузки промежутка            : 500  мс.
Заголовок                                : ru
Аудио #2
Идентификатор                            : 2
Формат                                   : MPEG Audio
Версия формата                           : Version 1
Профиль формата                          : Layer 3
Режим                                    : Joint stereo
Расширение режима                        : MS Stereo
Идентификатор кодека                     : 55
Идентификатор кодека/Подсказка           : MP3
Продолжительность                        : 1 ч. 41 м.
Вид битрейта                             : Постоянный
Битрейт                                  : 96,0 Кбит/сек
Каналы                                   : 2 канала
Частота                                  : 48,0 КГц
Метод сжатия                             : С потерями
Размер потока                            : 69,4 Мбайт (8%)
Выравнивание                             : Разделение по промежуткам
Продолжительность промежутка             : 40  мс. (1,00 видеокадр)
Время предзагрузки промежутка            : 500  мс.
Заголовок                                : fr
Скриншоты:        
       
Время раздачи: с 10:00 до 22:00 за
Вне форума [Профиль] [ЛС]
Показать сообщения:    
Ответить на тему

Текущее время: Сегодня 17:36

Часовой пояс: GMT + 3



Вы не можете начинать темы
Вы не можете отвечать на сообщения
Вы не можете редактировать свои сообщения
Вы не можете удалять свои сообщения
Вы не можете голосовать в опросах
Вы не можете прикреплять файлы к сообщениям
Вы не можете скачивать файлы