Сегодня идет свободное скачивание без начисления Download

Зелёная миля / The Green Mile (Фрэнк Дарабонт / Frank Darabont) [1999 г., Мистика, драма, HDRip] 2x[AVO] (А.Гаврилов, Ю.Живов) + [DUB]

Ответить на тему
 
Автор
Сообщение

maxkiller ®

Пол:

Стаж: 3 года 10 месяцев

Сообщений: 282

Торрент-статистика

Пост 10-Ноя-2013 13:44

[Цитировать]

-Зелёная миля / The Green Mile

Год выпуска: 1999
Страна: США
Жанр: Мистика, драма
Продолжительность: 03:08:37
Перевод #1: Авторский (одноголосный)[А.Гаврилов]
Перевод #2: Авторский (одноголосный)[Ю.Живов]
Перевод #3: Профессиональный (дублированный)
Русские субтитры: нет
Режиссёр: Фрэнк Дарабонт / Frank Darabont
В ролях:
Том Хэнкс, Дэвид Морс, Бонни Хант, Майкл Кларк Дункан, Джеймс Кромуэлл, Майкл Джетер, Грэхэм Грин, Даг Хатчинсон, Сэм Роквэлл, Бэрри Пеппер
Описание:
Фильм снят по мотивам произведения Стивена Кинга "Зеленая Миля".
Обвиненный в страшном преступлении, Джон Коффи оказывается в блоке смертников тюрьмы «Холодная гора». Вновь прибывший обладал поразительным ростом и был пугающе спокоен, что, впрочем, никак не влияло на отношение к нему начальника блока Пола Эджкомба, привыкшего исполнять приговор.
Гигант удивил всех позже, когда выяснилось, что он обладает невероятной магической силой…


Качество: HDRip
Формат: AVI
Видео кодек: XviD
Аудио кодек: AC3
Видео: 688x384 (1.79:1), 23.976 fps, XviD build 50 ~1813 kbps avg, 0.29 bit/pixel
Аудио #1: 48 kHz, AC3 Dolby Digital, 2/0 (L,R) ch, ~192.00 kbps avg [А.Гаврилов]
Аудио #2: 48 kHz, AC3 Dolby Digital, 2/0 (L,R) ch, ~192.00 kbps avg [Ю.Живов]
Аудио #3: 48 kHz, AC3 Dolby Digital, 2/0 (L,R) ch, ~192.00 kbps avg [Дубляж]

MI

General
Complete name : E:\INTERNET\The Green Mile.1999.HDRip.2x[AVO](Gavrilov, Jyvov) + [DUB].avi
Format : AVI
Format/Info : Audio Video Interleave
Format profile : OpenDML
File size : 3.16 GiB
Duration : 3h 8mn
Overall bit rate : 2 396 Kbps
Writing application : VirtualDubMod 1.5.10.3 (build 2550/release)
Writing library : VirtualDubMod build 2550/release
Video
ID : 0
Format : MPEG-4 Visual
Format profile : Advanced [email protected]
Format settings, BVOP : Yes
Format settings, QPel : No
Format settings, GMC : No warppoints
Format settings, Matrix : Custom
Codec ID : XVID
Codec ID/Hint : XviD
Duration : 3h 8mn
Bit rate : 1 800 Kbps
Width : 688 pixels
Height : 384 pixels
Display aspect ratio : 16:9
Frame rate : 23.976 fps
Color space : YUV
Chroma subsampling : 4:2:0
Bit depth : 8 bits
Scan type : Progressive
Bits/(Pixel*Frame) : 0.284
Stream size : 2.37 GiB (75%)
Writing library : XviD 1.2.1 (UTC 2008-12-04)
Audio #1
ID : 1
Format : AC-3
Format/Info : Audio Coding 3
Mode extension : CM (complete main)
Codec ID : 2000
Duration : 3h 8mn
Bit rate mode : Constant
Bit rate : 192 Kbps
Channel(s) : 2 channels
Channel positions : Front: L R
Sampling rate : 48.0 KHz
Bit depth : 16 bits
Stream size : 259 MiB (8%)
Alignment : Split accross interleaves
Interleave, duration : 42 ms (1.00 video frame)
Interleave, preload duration : 500 ms
Audio #2
ID : 2
Format : AC-3
Format/Info : Audio Coding 3
Mode extension : CM (complete main)
Codec ID : 2000
Duration : 3h 8mn
Bit rate mode : Constant
Bit rate : 192 Kbps
Channel(s) : 2 channels
Channel positions : Front: L R
Sampling rate : 48.0 KHz
Bit depth : 16 bits
Stream size : 259 MiB (8%)
Alignment : Split accross interleaves
Interleave, duration : 42 ms (1.00 video frame)
Interleave, preload duration : 500 ms
Audio #3
ID : 3
Format : AC-3
Format/Info : Audio Coding 3
Mode extension : CM (complete main)
Codec ID : 2000
Duration : 3h 8mn
Bit rate mode : Constant
Bit rate : 192 Kbps
Channel(s) : 2 channels
Channel positions : Front: L R
Sampling rate : 48.0 KHz
Bit depth : 16 bits
Stream size : 259 MiB (8%)
Alignment : Split accross interleaves
Interleave, duration : 42 ms (1.00 video frame)
Interleave, preload duration : 500 ms

Скриншоты

       
-
Вне форума [Профиль] [ЛС]
Показать сообщения:    
Ответить на тему

Текущее время: Сегодня 09:43

Часовой пояс: GMT + 3



Вы не можете начинать темы
Вы не можете отвечать на сообщения
Вы не можете редактировать свои сообщения
Вы не можете удалять свои сообщения
Вы не можете голосовать в опросах
Вы не можете прикреплять файлы к сообщениям
Вы не можете скачивать файлы